<?xml version="1.0" standalone="no"?>
<!DOCTYPE svg PUBLIC "-//W3C//DTD SVG 1.1//EN" "http://www.w3.org/Graphics/SVG/1.1/DTD/svg11.dtd" >
<svg xmlns="http://www.w3.org/2000/svg" xmlns:xlink="http://www.w3.org/1999/xlink" version="1.1">
<metadata>
Created by FontForge 20161013 at Tue Oct 25 17:02:24 2011
 By ,,,
Copyright (c) 2008 - 2011 Linotype GmbH, www.linotype.com. All rights reserved. This font software may not be reproduced, modified, disclosed or transferred without the express written approval of Linotype GmbH.
</metadata>
<defs>
<font id="DINNextLTArabic-Light" horiz-adv-x="532" >
  <font-face 
    font-family="DIN Next LT Arabic Light"
    font-weight="300"
    font-stretch="normal"
    units-per-em="1000"
    panose-1="2 11 3 3 2 2 3 5 2 3"
    ascent="750"
    descent="-250"
    x-height="477"
    cap-height="680"
    bbox="-179.75 -427 1185 1389"
    underline-thickness="50"
    underline-position="-150"
    unicode-range="U+000D-FEFC"
  />
<missing-glyph horiz-adv-x="470" 
d="M0 670q0 10 10 10h450q10 0 10 -10v-660q0 -10 -10 -10h-450q-10 0 -10 10v660zM39 43q0 -6 6 -6h380q6 0 6 6v594q0 6 -6 6h-380q-6 0 -6 -6v-594zM215 224q-10 0 -10 10v24q0 23 5 37.5t17 29.5l37 48q23 27 30 43.5t7 36.5q0 32 -20 51t-52 19q-62 0 -77 -67
q-2 -9 -12 -8l-21 4q-10 2 -8 11q8 44 39.5 71.5t79.5 27.5q51 0 81.5 -31.5t30.5 -77.5q0 -29 -9 -49.5t-29 -44.5l-37 -48q-13 -16 -16.5 -26.5t-3.5 -28.5v-22q0 -10 -10 -10h-22zM200 162q0 10 10 10h31q10 0 10 -10v-39q0 -10 -10 -10h-31q-10 0 -10 10v39z" />
    <glyph glyph-name="aLam.init_aAlifMadda.fina" unicode="&#xfedf;&#xfe82;" horiz-adv-x="634" arabic-form="isolated" 
d="M132 627q5 18 13.5 28.5t18 16.5t20 7.5t19.5 1.5q23 0 48.5 -8t51 -17.5t50 -17.5t47.5 -8q17 0 24.5 7.5t7.5 26.5q0 10 10 10h19q10 0 10 -10q0 -23 -6.5 -37.5t-17 -22t-24 -10t-26.5 -2.5q-25 0 -51.5 8t-52.5 18t-50 18t-43 8q-10 0 -19 -5.5t-14 -22.5
q-3 -8 -11 -7l-18 7q-9 2 -6 11zM326 56h130q25 0 36.5 11.5t11.5 41.5v561q0 10 10 10h35q10 0 10 -10v-544q0 -70 -27 -98t-90 -28h-387q-10 0 -10 10v36q0 10 10 10h216v473q0 10 10 10h35q10 0 10 -10v-473z" />
    <glyph glyph-name="aLam.medi_aAlifMadda.fina" unicode="&#xfee0;&#xfe82;" horiz-adv-x="660" arabic-form="final" 
d="M132 627q5 18 13.5 28.5t18 16.5t20 7.5t19.5 1.5q23 0 48.5 -8t51 -17.5t50 -17.5t47.5 -8q17 0 24.5 7.5t7.5 26.5q0 10 10 10h19q10 0 10 -10q0 -23 -6.5 -37.5t-17 -22t-24 -10t-26.5 -2.5q-25 0 -51.5 8t-52.5 18t-50 18t-43 8q-10 0 -19 -5.5t-14 -22.5
q-3 -8 -11 -7l-18 7q-9 2 -6 11zM546 50q-12 -27 -37 -38.5t-67 -11.5h-387q-10 0 -10 10v36q0 10 10 10h216v473q0 10 10 10h35q10 0 10 -10v-473h130q25 0 36.5 11.5t11.5 41.5v561q0 10 10 10h35q10 0 10 -10v-554q0 -31 28.5 -45.5t67.5 -14.5h5q20 0 30 -5.5t10 -19.5
q0 -23 -9.5 -27t-30.5 -4q-41 0 -69.5 9t-44.5 41z" />
    <glyph glyph-name="aLam.init_aAlifHamza.fina" unicode="&#xfedf;&#xfe84;" horiz-adv-x="634" arabic-form="isolated" 
d="M240 642q-8 13 -13.5 28t-5.5 38q0 13 4.5 29t15.5 30.5t30 24.5t48 10q23 0 44.5 -9.5t32.5 -26.5q3 -6 -2 -11l-15 -13q-5 -5 -11 1q-9 10 -22.5 16t-30.5 6q-26 0 -40.5 -18t-14.5 -44q0 -19 9.5 -35.5t20.5 -25.5h105q6 0 6 -7v-24q0 -7 -6 -7h-193q-6 0 -6 7v24
q0 7 6 7h38zM326 56h130q25 0 36.5 11.5t11.5 41.5v561q0 10 10 10h35q10 0 10 -10v-544q0 -70 -27 -98t-90 -28h-387q-10 0 -10 10v36q0 10 10 10h216v473q0 10 10 10h35q10 0 10 -10v-473z" />
    <glyph glyph-name="aLam.medi_aAlifHamza.fina" unicode="&#xfee0;&#xfe84;" horiz-adv-x="660" arabic-form="final" 
d="M240 642q-8 13 -13.5 28t-5.5 38q0 13 4.5 29t15.5 30.5t30 24.5t48 10q23 0 44.5 -9.5t32.5 -26.5q3 -6 -2 -11l-15 -13q-5 -5 -11 1q-9 10 -22.5 16t-30.5 6q-26 0 -40.5 -18t-14.5 -44q0 -19 9.5 -35.5t20.5 -25.5h105q6 0 6 -7v-24q0 -7 -6 -7h-193q-6 0 -6 7v24
q0 7 6 7h38zM546 50q-12 -27 -37 -38.5t-67 -11.5h-387q-10 0 -10 10v36q0 10 10 10h216v473q0 10 10 10h35q10 0 10 -10v-473h130q25 0 36.5 11.5t11.5 41.5v561q0 10 10 10h35q10 0 10 -10v-554q0 -31 28.5 -45.5t67.5 -14.5h5q20 0 30 -5.5t10 -19.5q0 -23 -9.5 -27
t-30.5 -4q-41 0 -69.5 9t-44.5 41z" />
    <glyph glyph-name="aLam.init_aAlifHamzabelow.fina" unicode="&#xfedf;&#xfe88;" horiz-adv-x="634" arabic-form="isolated" 
d="M238 -230q-8 13 -13.5 28t-5.5 38q0 13 4.5 29t15.5 30.5t30 24.5t48 10q23 0 44.5 -9.5t32.5 -26.5q2 -4 1 -6.5t-3 -4.5l-15 -13q-5 -5 -11 1q-9 10 -22.5 16t-30.5 6q-26 0 -40.5 -18t-14.5 -44q0 -19 9.5 -35.5t20.5 -25.5h105q6 0 6 -7v-24q0 -7 -6 -7h-193
q-6 0 -6 7v24q0 7 6 7h38zM326 56h130q25 0 36.5 11.5t11.5 41.5v561q0 10 10 10h35q10 0 10 -10v-544q0 -70 -27 -98t-90 -28h-387q-10 0 -10 10v36q0 10 10 10h216v473q0 10 10 10h35q10 0 10 -10v-473z" />
    <glyph glyph-name="aLam.medi_aAlifHamzabelow.fina" unicode="&#xfee0;&#xfe88;" horiz-adv-x="660" arabic-form="final" 
d="M238 -230q-8 13 -13.5 28t-5.5 38q0 13 4.5 29t15.5 30.5t30 24.5t48 10q23 0 44.5 -9.5t32.5 -26.5q2 -4 1 -6.5t-3 -4.5l-15 -13q-5 -5 -11 1q-9 10 -22.5 16t-30.5 6q-26 0 -40.5 -18t-14.5 -44q0 -19 9.5 -35.5t20.5 -25.5h105q6 0 6 -7v-24q0 -7 -6 -7h-193
q-6 0 -6 7v24q0 7 6 7h38zM546 50q-12 -27 -37 -38.5t-67 -11.5h-387q-10 0 -10 10v36q0 10 10 10h216v473q0 10 10 10h35q10 0 10 -10v-473h130q25 0 36.5 11.5t11.5 41.5v561q0 10 10 10h35q10 0 10 -10v-554q0 -31 28.5 -45.5t67.5 -14.5h5q20 0 30 -5.5t10 -19.5
q0 -23 -9.5 -27t-30.5 -4q-41 0 -69.5 9t-44.5 41z" />
    <glyph glyph-name="aLam.init_aAlif.fina" unicode="&#xfedf;&#xfe8e;" horiz-adv-x="634" arabic-form="isolated" 
d="M326 56h130q25 0 36.5 11.5t11.5 41.5v561q0 10 10 10h35q10 0 10 -10v-544q0 -70 -27 -98t-90 -28h-387q-10 0 -10 10v36q0 10 10 10h216v473q0 10 10 10h35q10 0 10 -10v-473z" />
    <glyph glyph-name="aLam.medi_aAlif.fina" unicode="&#xfee0;&#xfe8e;" horiz-adv-x="660" arabic-form="final" 
d="M546 50q-12 -27 -37 -38.5t-67 -11.5h-387q-10 0 -10 10v36q0 10 10 10h216v473q0 10 10 10h35q10 0 10 -10v-473h130q25 0 36.5 11.5t11.5 41.5v561q0 10 10 10h35q10 0 10 -10v-554q0 -31 28.5 -45.5t67.5 -14.5h5q20 0 30 -5.5t10 -19.5q0 -23 -9.5 -27t-30.5 -4
q-41 0 -69.5 9t-44.5 41z" />
    <glyph glyph-name="aLam.init_aAlifWasla.fina" unicode="&#xfedf;&#xfb51;" horiz-adv-x="634" 
d="M224 628q10 0 10 11v95q0 7 8 7h13q8 0 8 -7v-12q15 8 32 13t35 5q45 0 62.5 -23t17.5 -55q0 -63 -54 -63h-144q-7 0 -7 7v15q0 7 7 7h12zM334 711q-17 0 -35.5 -6t-35.5 -13v-64h93q17 0 21 6.5t4 27.5q0 23 -9.5 36t-37.5 13zM326 56h130q25 0 36.5 11.5t11.5 41.5v561
q0 10 10 10h35q10 0 10 -10v-544q0 -70 -27 -98t-90 -28h-387q-10 0 -10 10v36q0 10 10 10h216v473q0 10 10 10h35q10 0 10 -10v-473z" />
    <glyph glyph-name="aLam.medi_aAlifWasla.fina" unicode="&#xfee0;&#xfb51;" horiz-adv-x="660" 
d="M224 628q10 0 10 11v95q0 7 8 7h13q8 0 8 -7v-12q15 8 32 13t35 5q45 0 62.5 -23t17.5 -55q0 -63 -54 -63h-144q-7 0 -7 7v15q0 7 7 7h12zM334 711q-17 0 -35.5 -6t-35.5 -13v-64h93q17 0 21 6.5t4 27.5q0 23 -9.5 36t-37.5 13zM546 50q-12 -27 -37 -38.5t-67 -11.5h-387
q-10 0 -10 10v36q0 10 10 10h216v473q0 10 10 10h35q10 0 10 -10v-473h130q25 0 36.5 11.5t11.5 41.5v561q0 10 10 10h35q10 0 10 -10v-554q0 -31 28.5 -45.5t67.5 -14.5h5q20 0 30 -5.5t10 -19.5q0 -23 -9.5 -27t-30.5 -4q-41 0 -69.5 9t-44.5 41z" />
    <glyph glyph-name="aHamza" unicode="&#x621;" horiz-adv-x="366" arabic-form="isolated" 
d="M93 52q-15 20 -25 49t-10 63q0 21 7 47t25 49t48 38.5t77 15.5q35 0 65 -12t48 -40q5 -8 3.5 -10.5t-3.5 -4.5l-26 -19q-6 -5 -9 -3.5t-7 5.5q-14 14 -33 23.5t-45 9.5q-25 0 -43 -8.5t-30 -22t-17.5 -31.5t-5.5 -37q0 -38 17.5 -68t37.5 -44h165q10 0 10 -11v-30
q0 -11 -10 -11h-302q-10 0 -10 11v30q0 11 10 11h63z" />
    <glyph glyph-name="aAlifMadda" unicode="&#x622;" horiz-adv-x="205" arabic-form="isolated" 
d="M130 10q0 -10 -10 -10h-35q-10 0 -10 10v660q0 10 10 10h35q10 0 10 -10v-660zM-64 777q5 18 13.5 28.5t18 16.5t20 7.5t19.5 1.5q23 0 48.5 -8t51 -17.5t50 -17.5t47.5 -8q17 0 24.5 7.5t7.5 26.5q0 10 10 10h19q10 0 10 -10q0 -23 -6.5 -37.5t-17 -22t-24 -10
t-26.5 -2.5q-25 0 -51.5 8t-52.5 18t-50 18t-43 8q-10 0 -19 -5.5t-14 -22.5q-3 -8 -11 -7l-18 7q-9 2 -6 11z" />
    <glyph glyph-name="aAlifHamza" unicode="&#x623;" horiz-adv-x="205" arabic-form="isolated" 
d="M130 10q0 -10 -10 -10h-35q-10 0 -10 10v660q0 10 10 10h35q10 0 10 -10v-660zM44 768q-8 13 -13.5 28t-5.5 38q0 13 4.5 29t15.5 30.5t30 24.5t48 10q23 0 44.5 -9.5t32.5 -26.5q3 -6 -2 -11l-15 -13q-5 -5 -11 1q-9 10 -22.5 16t-30.5 6q-26 0 -40.5 -18t-14.5 -44
q0 -19 9.5 -35.5t20.5 -25.5h105q6 0 6 -7v-24q0 -7 -6 -7h-193q-6 0 -6 7v24q0 7 6 7h38z" />
    <glyph glyph-name="aWawHamza" unicode="&#x624;" horiz-adv-x="488" arabic-form="isolated" 
d="M145 -196q-10 0 -10 10v36q0 10 10 10h122q49 0 72.5 18t23.5 72v50h-113q-42 0 -76 10t-58.5 33t-37.5 61.5t-13 95.5q0 54 14 95.5t38.5 69t57 42t70.5 14.5q89 0 131.5 -53t42.5 -162v-255q0 -78 -32.5 -112.5t-102.5 -34.5h-139zM245 365q-55 0 -88.5 -42t-33.5 -125
q0 -40 7.5 -67t23.5 -43.5t40 -24t56 -7.5h113v148q0 77 -27 119t-91 42zM156 529q-8 10 -14 24.5t-6 34.5q0 13 4.5 29t16.5 30.5t33 24t53 9.5q26 0 47 -10t33 -24q5 -6 -1 -12l-20 -18q-2 -1 -7 4q-10 8 -24 15t-34 7q-34 0 -47.5 -18.5t-13.5 -37.5q0 -24 12 -38t23 -20
h117q6 0 6 -7v-25q0 -7 -6 -7h-205q-6 0 -6 7v25q0 7 6 7h33z" />
    <glyph glyph-name="aAlifHamzabelow" unicode="&#x625;" horiz-adv-x="205" arabic-form="isolated" 
d="M130 10q0 -10 -10 -10h-35q-10 0 -10 10v660q0 10 10 10h35q10 0 10 -10v-660zM44 -230q-8 13 -13.5 28t-5.5 38q0 13 4.5 29t15.5 30.5t30 24.5t48 10q23 0 44.5 -9.5t32.5 -26.5q2 -4 1 -6.5t-3 -4.5l-15 -13q-5 -5 -11 1q-9 10 -22.5 16t-30.5 6q-26 0 -40.5 -18
t-14.5 -44q0 -19 9.5 -35.5t20.5 -25.5h105q6 0 6 -7v-24q0 -7 -6 -7h-193q-6 0 -6 7v24q0 7 6 7h38z" />
    <glyph glyph-name="aYehHamza" unicode="&#x626;" horiz-adv-x="758" arabic-form="isolated" 
d="M113 352q-8 10 -14 24.5t-6 34.5q0 13 4.5 29t16.5 30.5t33 24t53 9.5q26 0 47 -10t33 -24q5 -6 -1 -12l-20 -18q-2 -1 -7 4q-10 8 -24 15t-34 7q-34 0 -47.5 -18.5t-13.5 -37.5q0 -24 12 -38t23 -20h117q6 0 6 -7v-25q0 -7 -6 -7h-205q-6 0 -6 7v25q0 7 6 7h33zM94 25
q0 -45 14 -76t37.5 -50.5t55 -28t67.5 -8.5h242q30 0 49.5 4.5t31 12.5t15.5 19.5t4 26.5q0 20 -17 39t-42.5 38t-55 39.5t-55 45.5t-42.5 54.5t-17 66.5q0 25 8.5 51t28 47.5t51 35t76.5 13.5q33 0 58.5 -7t45 -18t34 -24t25.5 -25q5 -6 -3 -14l-26 -28q-5 -6 -13 2
q-24 24 -51.5 40.5t-70.5 16.5q-45 0 -74.5 -22.5t-29.5 -60.5q0 -29 17 -53t42.5 -46t55 -43t55 -43.5t42.5 -48t17 -57.5q0 -26 -7.5 -47.5t-24.5 -38t-44 -25.5t-66 -9h-268q-104 0 -163 57t-59 158q0 63 20.5 115t44.5 86q4 6 14 0l31 -20q8 -5 3 -13q-20 -31 -38 -73.5
t-18 -88.5z" />
    <glyph glyph-name="aAlif" unicode="&#x627;" horiz-adv-x="205" arabic-form="isolated" 
d="M130 10q0 -10 -10 -10h-35q-10 0 -10 10v660q0 10 10 10h35q10 0 10 -10v-660z" />
    <glyph glyph-name="aBeh" unicode="&#x628;" horiz-adv-x="803" arabic-form="isolated" 
d="M640 56q26 0 37.5 11.5t11.5 41.5v284q0 10 10 10h35q10 0 10 -10v-285q0 -57 -25 -82.5t-79 -25.5h-477q-63 0 -90 25t-27 85v219q0 10 10 10h35q10 0 10 -10v-220q0 -29 11.5 -41t36.5 -12h491v0zM364 -164q-10 0 -10 10v60q0 10 10 10h52q10 0 10 -10v-60
q0 -10 -10 -10h-52z" />
    <glyph glyph-name="aTehMarbuta" unicode="&#x629;" horiz-adv-x="457" arabic-form="isolated" 
d="M222 -7q-86 0 -131 52t-45 163q0 213 176 213t176 -213q0 -111 -44.5 -163t-131.5 -52zM222 365q-63 0 -91 -42.5t-28 -117.5q0 -79 28 -117.5t91 -38.5t91.5 38.5t28.5 117.5q0 74 -28.5 117t-91.5 43zM260 501q-10 0 -10 10v60q0 10 10 10h52q10 0 10 -10v-60
q0 -10 -10 -10h-52zM132 501q-10 0 -10 10v60q0 10 10 10h52q10 0 10 -10v-60q0 -10 -10 -10h-52z" />
    <glyph glyph-name="aTeh" unicode="&#x62a;" horiz-adv-x="803" arabic-form="isolated" 
d="M640 56q26 0 37.5 11.5t11.5 41.5v284q0 10 10 10h35q10 0 10 -10v-285q0 -57 -25 -82.5t-79 -25.5h-477q-63 0 -90 25t-27 85v219q0 10 10 10h35q10 0 10 -10v-220q0 -29 11.5 -41t36.5 -12h491v0zM436 442q-10 0 -10 10v60q0 10 10 10h52q10 0 10 -10v-60
q0 -10 -10 -10h-52zM308 442q-10 0 -10 10v60q0 10 10 10h52q10 0 10 -10v-60q0 -10 -10 -10h-52z" />
    <glyph glyph-name="aTheh" unicode="&#x62b;" horiz-adv-x="803" arabic-form="isolated" 
d="M640 56q26 0 37.5 11.5t11.5 41.5v284q0 10 10 10h35q10 0 10 -10v-285q0 -57 -25 -82.5t-79 -25.5h-477q-63 0 -90 25t-27 85v219q0 10 10 10h35q10 0 10 -10v-220q0 -29 11.5 -41t36.5 -12h491v0zM370 570q-10 0 -10 10v60q0 10 10 10h52q10 0 10 -10v-60
q0 -10 -10 -10h-52zM435 442q-10 0 -10 10v60q0 10 10 10h52q10 0 10 -10v-60q0 -10 -10 -10h-52zM307 442q-10 0 -10 10v60q0 10 10 10h52q10 0 10 -10v-60q0 -10 -10 -10h-52z" />
    <glyph glyph-name="aJim" unicode="&#x62c;" horiz-adv-x="547" arabic-form="isolated" 
d="M155 0q-38 0 -51.5 -21t-13.5 -48q0 -36 18 -53.5t63 -17.5h65q10 0 10 -10v-36q0 -10 -10 -10h-59q-145 0 -145 123q0 38 11 63t28.5 39.5t38 20.5t38.5 6h191q30 0 47.5 5t27 17.5t12 32.5t2.5 50q0 47 -7.5 84.5t-25.5 63.5t-47 40t-72 14q-35 0 -67 -12.5t-58 -43.5
q-6 -9 -14 -2l-27 24q-9 5 -3 14q26 33 66.5 55.5t103.5 22.5q66 0 107.5 -22.5t64.5 -58.5t31.5 -82t8.5 -93q0 -45 -6 -76.5t-21 -51t-40.5 -28.5t-64.5 -9h-202zM298 -169q-10 0 -10 10v60q0 10 10 10h52q10 0 10 -10v-60q0 -10 -10 -10h-52z" />
    <glyph glyph-name="aHah" unicode="&#x62d;" horiz-adv-x="547" arabic-form="isolated" 
d="M155 0q-38 0 -51.5 -21t-13.5 -48q0 -36 18 -53.5t63 -17.5h116q10 0 10 -10v-36q0 -10 -10 -10h-110q-145 0 -145 123q0 38 11 63t28.5 39.5t38 20.5t38.5 6h191q30 0 47.5 5t27 17.5t12 32.5t2.5 50q0 47 -7.5 84.5t-25.5 63.5t-47 40t-72 14q-35 0 -67 -12.5
t-58 -43.5q-6 -9 -14 -2l-27 24q-9 5 -3 14q26 33 66.5 55.5t103.5 22.5q66 0 107.5 -22.5t64.5 -58.5t31.5 -82t8.5 -93q0 -45 -6 -76.5t-21 -51t-40.5 -28.5t-64.5 -9h-202z" />
    <glyph glyph-name="aKhah" unicode="&#x62e;" horiz-adv-x="547" arabic-form="isolated" 
d="M155 0q-38 0 -51.5 -21t-13.5 -48q0 -36 18 -53.5t63 -17.5h116q10 0 10 -10v-36q0 -10 -10 -10h-110q-145 0 -145 123q0 38 11 63t28.5 39.5t38 20.5t38.5 6h191q30 0 47.5 5t27 17.5t12 32.5t2.5 50q0 47 -7.5 84.5t-25.5 63.5t-47 40t-72 14q-35 0 -67 -12.5
t-58 -43.5q-6 -9 -14 -2l-27 24q-9 5 -3 14q26 33 66.5 55.5t103.5 22.5q66 0 107.5 -22.5t64.5 -58.5t31.5 -82t8.5 -93q0 -45 -6 -76.5t-21 -51t-40.5 -28.5t-64.5 -9h-202zM255 501q-10 0 -10 10v60q0 10 10 10h40q10 0 10 -10v-60q0 -10 -10 -10h-40z" />
    <glyph glyph-name="aDal" unicode="&#x62f;" horiz-adv-x="484" arabic-form="isolated" 
d="M426 171q0 -50 -7 -83t-23.5 -52.5t-43 -27.5t-66.5 -8h-212q-10 0 -10 10v36q0 10 10 10h200q30 0 48.5 5t28 16.5t12.5 31t3 48.5v97q0 56 -30 83.5t-96 27.5h-117q-10 0 -10 10v36q0 10 10 10h134q38 0 69.5 -10t53.5 -30.5t34 -52.5t12 -77v-80z" />
    <glyph glyph-name="aDhal" unicode="&#x630;" horiz-adv-x="484" arabic-form="isolated" 
d="M426 171q0 -50 -7 -83t-23.5 -52.5t-43 -27.5t-66.5 -8h-212q-10 0 -10 10v36q0 10 10 10h200q30 0 48.5 5t28 16.5t12.5 31t3 48.5v97q0 56 -30 83.5t-96 27.5h-117q-10 0 -10 10v36q0 10 10 10h134q38 0 69.5 -10t53.5 -30.5t34 -52.5t12 -77v-80zM200 501
q-10 0 -10 10v60q0 10 10 10h40q10 0 10 -10v-60q0 -10 -10 -10h-40z" />
    <glyph glyph-name="aReh" unicode="&#x631;" horiz-adv-x="240" arabic-form="isolated" 
d="M9 -196q-10 0 -10 10v36q0 10 10 10h23q41 0 62.5 21t21.5 64v448q0 10 10 10h35q10 0 10 -10v-442q0 -71 -35 -109t-110 -38h-17z" />
    <glyph glyph-name="aZeh" unicode="&#x632;" horiz-adv-x="240" arabic-form="isolated" 
d="M9 -196q-10 0 -10 10v36q0 10 10 10h23q41 0 62.5 21t21.5 64v448q0 10 10 10h35q10 0 10 -10v-442q0 -71 -35 -109t-110 -38h-17zM124 501q-10 0 -10 10v60q0 10 10 10h40q10 0 10 -10v-60q0 -10 -10 -10h-40z" />
    <glyph glyph-name="aSin" unicode="&#x633;" horiz-adv-x="1046" arabic-form="isolated" 
d="M843 56q28 0 44.5 3.5t25.5 13.5t11.5 26.5t2.5 43.5v250q0 10 10 10h36q10 0 10 -10v-262q0 -42 -9 -67.5t-24.5 -39.5t-36.5 -19t-45 -5h-46q-28 0 -55 12.5t-40 38.5q-12 -24 -34 -37.5t-62 -13.5h-46q-22 0 -44.5 8t-37.5 24v-13q0 -46 -13.5 -84.5t-41 -66.5
t-70.5 -44t-101 -16q-54 0 -96.5 15t-71 42.5t-43.5 66.5t-15 86q0 63 20.5 115t44.5 86q4 6 14 0l31 -20q8 -5 3 -13q-20 -31 -38 -73.5t-18 -88.5q0 -47 17 -77.5t43 -48t56.5 -24.5t58.5 -7q35 0 65.5 8t52.5 26t34.5 46.5t12.5 69.5v283q0 10 10 10h36q10 0 10 -10v-170
q0 -36 27 -55t72 -19q28 0 44.5 3t25 12.5t10.5 26.5t2 45v157q0 10 10 10h36q10 0 10 -10v-175q0 -34 28 -51.5t74 -17.5z" />
    <glyph glyph-name="aShin" unicode="&#x634;" horiz-adv-x="1046" arabic-form="isolated" 
d="M843 56q28 0 44.5 3.5t25.5 13.5t11.5 26.5t2.5 43.5v250q0 10 10 10h36q10 0 10 -10v-262q0 -42 -9 -67.5t-24.5 -39.5t-36.5 -19t-45 -5h-46q-28 0 -55 12.5t-40 38.5q-12 -24 -34 -37.5t-62 -13.5h-46q-22 0 -44.5 8t-37.5 24v-13q0 -46 -13.5 -84.5t-41 -66.5
t-70.5 -44t-101 -16q-54 0 -96.5 15t-71 42.5t-43.5 66.5t-15 86q0 63 20.5 115t44.5 86q4 6 14 0l31 -20q8 -5 3 -13q-20 -31 -38 -73.5t-18 -88.5q0 -47 17 -77.5t43 -48t56.5 -24.5t58.5 -7q35 0 65.5 8t52.5 26t34.5 46.5t12.5 69.5v283q0 10 10 10h36q10 0 10 -10v-170
q0 -36 27 -55t72 -19q28 0 44.5 3t25 12.5t10.5 26.5t2 45v157q0 10 10 10h36q10 0 10 -10v-175q0 -34 28 -51.5t74 -17.5zM684 629q-10 0 -10 10v60q0 10 10 10h52q10 0 10 -10v-60q0 -10 -10 -10h-52zM749 501q-10 0 -10 10v60q0 10 10 10h52q10 0 10 -10v-60
q0 -10 -10 -10h-52zM621 501q-10 0 -10 10v60q0 10 10 10h52q10 0 10 -10v-60q0 -10 -10 -10h-52z" />
    <glyph glyph-name="aSad" unicode="&#x635;" horiz-adv-x="1038" arabic-form="isolated" 
d="M749 365q-33 0 -66.5 -6.5t-65.5 -17t-61 -23t-53 -24.5v-238h300q32 0 54 3.5t36 17t20 39.5t6 71q0 41 -8 74t-27.5 56t-52.5 35.5t-82 12.5zM108 24q0 -47 17 -77.5t43 -48t56.5 -24.5t58.5 -7q34 0 64.5 8t52.5 26t35 46.5t13 69.5v373q0 10 10 10h35q10 0 10 -10
v-37q51 28 113.5 48t128.5 20q75 0 120.5 -21.5t71 -55.5t34 -76t8.5 -82q0 -65 -11.5 -102.5t-35.5 -56t-62.5 -23t-92.5 -4.5h-275q-3 -41 -18 -76.5t-42.5 -61t-68.5 -40t-96 -14.5q-54 0 -96.5 15t-71 42.5t-43.5 66.5t-15 86q0 63 20.5 115t44.5 86q4 6 14 0l31 -20
q8 -5 3 -13q-20 -31 -38 -73.5t-18 -88.5z" />
    <glyph glyph-name="aDad" unicode="&#x636;" horiz-adv-x="1038" arabic-form="isolated" 
d="M749 365q-33 0 -66.5 -6.5t-65.5 -17t-61 -23t-53 -24.5v-238h300q32 0 54 3.5t36 17t20 39.5t6 71q0 41 -8 74t-27.5 56t-52.5 35.5t-82 12.5zM108 24q0 -47 17 -77.5t43 -48t56.5 -24.5t58.5 -7q34 0 64.5 8t52.5 26t35 46.5t13 69.5v373q0 10 10 10h35q10 0 10 -10
v-37q51 28 113.5 48t128.5 20q75 0 120.5 -21.5t71 -55.5t34 -76t8.5 -82q0 -65 -11.5 -102.5t-35.5 -56t-62.5 -23t-92.5 -4.5h-275q-3 -41 -18 -76.5t-42.5 -61t-68.5 -40t-96 -14.5q-54 0 -96.5 15t-71 42.5t-43.5 66.5t-15 86q0 63 20.5 115t44.5 86q4 6 14 0l31 -20
q8 -5 3 -13q-20 -31 -38 -73.5t-18 -88.5zM730 501q-10 0 -10 10v60q0 10 10 10h40q10 0 10 -10v-60q0 -10 -10 -10h-40z" />
    <glyph glyph-name="aTah" unicode="&#x637;" horiz-adv-x="723" arabic-form="isolated" 
d="M489 56q32 0 54 3.5t35.5 17t19.5 39.5t6 71q0 41 -8 74t-27.5 56t-52 35.5t-81.5 12.5q-33 0 -67 -6.5t-66 -16.5t-61 -23t-52 -25v-175q0 -15 -3 -33.5t-8 -29.5h311zM165 0q-8 0 -17 2t-15 7q-10 -5 -22 -7t-31 -2h-39q-10 0 -10 10v36q0 10 10 10h34q17 0 28.5 3.5
t18 13.5t9 26.5t2.5 42.5v528q0 10 10 10h36q10 0 10 -10v-317q51 28 113 48t128 20q75 0 121 -21.5t71.5 -55.5t34 -76t8.5 -82q0 -65 -11.5 -102t-35.5 -56t-62.5 -23.5t-92.5 -4.5h-298z" />
    <glyph glyph-name="aZah" unicode="&#x638;" horiz-adv-x="723" arabic-form="isolated" 
d="M489 56q32 0 54 3.5t35.5 17t19.5 39.5t6 71q0 41 -8 74t-27.5 56t-52 35.5t-81.5 12.5q-33 0 -67 -6.5t-66 -16.5t-61 -23t-52 -25v-175q0 -15 -3 -33.5t-8 -29.5h311zM165 0q-8 0 -17 2t-15 7q-10 -5 -22 -7t-31 -2h-39q-10 0 -10 10v36q0 10 10 10h34q17 0 28.5 3.5
t18 13.5t9 26.5t2.5 42.5v528q0 10 10 10h36q10 0 10 -10v-317q51 28 113 48t128 20q75 0 121 -21.5t71.5 -55.5t34 -76t8.5 -82q0 -65 -11.5 -102t-35.5 -56t-62.5 -23.5t-92.5 -4.5h-298zM401 501q-10 0 -10 10v60q0 10 10 10h40q10 0 10 -10v-60q0 -10 -10 -10h-40z" />
    <glyph glyph-name="aAyn" unicode="&#x639;" horiz-adv-x="541" arabic-form="isolated" 
d="M41 -69q0 34 10.5 58t27 38.5t36.5 21.5t40 9q-26 25 -44.5 62.5t-18.5 96.5q0 25 7 60.5t28.5 67t61.5 54t106 22.5q57 0 96.5 -21t65.5 -56q5 -9 -3 -14l-30 -22q-8 -6 -14 1q-45 56 -116 56q-38 0 -65 -11.5t-44 -31.5t-25 -46t-8 -56q0 -44 14 -74t33 -49.5t38 -29
t28 -11.5h219q10 0 10 -10v-36q0 -10 -10 -10h-322q-34 0 -49 -19.5t-15 -48.5q0 -36 20.5 -54t79.5 -18h92q10 0 10 -10v-36q0 -10 -10 -10h-96q-72 0 -112.5 30.5t-40.5 96.5z" />
    <glyph glyph-name="aGhayn" unicode="&#x63a;" horiz-adv-x="541" arabic-form="isolated" 
d="M41 -69q0 34 10.5 58t27 38.5t36.5 21.5t40 9q-26 25 -44.5 62.5t-18.5 96.5q0 25 7 60.5t28.5 67t61.5 54t106 22.5q57 0 96.5 -21t65.5 -56q5 -9 -3 -14l-30 -22q-8 -6 -14 1q-45 56 -116 56q-38 0 -65 -11.5t-44 -31.5t-25 -46t-8 -56q0 -44 14 -74t33 -49.5t38 -29
t28 -11.5h219q10 0 10 -10v-36q0 -10 -10 -10h-322q-34 0 -49 -19.5t-15 -48.5q0 -36 20.5 -54t79.5 -18h92q10 0 10 -10v-36q0 -10 -10 -10h-96q-72 0 -112.5 30.5t-40.5 96.5zM275 500q-10 0 -10 10v60q0 10 10 10h40q10 0 10 -10v-60q0 -10 -10 -10h-40z" />
    <glyph glyph-name="aFeh" unicode="&#x641;" horiz-adv-x="923" arabic-form="isolated" 
d="M686 365q-60 0 -90 -41.5t-30 -110.5q0 -82 28.5 -119.5t91.5 -37.5t91 35t28 114q0 74 -28 117t-91 43zM545 56q-17 28 -26 65t-9 87q0 107 48 160t128 53q176 0 176 -213q0 -111 -45 -159.5t-131 -48.5h-523q-63 0 -90 25t-27 85v219q0 10 10 10h35q10 0 10 -10v-220
q0 -29 11.5 -41t36.5 -12h396zM674 501q-10 0 -10 10v60q0 10 10 10h40q10 0 10 -10v-60q0 -10 -10 -10h-40z" />
    <glyph glyph-name="aQaf" unicode="&#x642;" horiz-adv-x="732" arabic-form="isolated" 
d="M663 -63q0 -33 -6 -58t-23 -41.5t-47.5 -25t-78.5 -8.5h-249q-104 0 -163 57t-59 158q0 60 20 115t46 92q4 7 13 0l32 -20q8 -5 3 -13q-9 -14 -19 -32.5t-18.5 -40.5t-13.5 -46.5t-5 -49.5q0 -44 13.5 -75t37 -50.5t55 -28t67.5 -8.5h228q59 0 84.5 12.5t25.5 54.5v71
h-112q-42 0 -76 11t-58.5 36t-37.5 64.5t-13 96.5q0 54 13.5 94t37.5 66.5t56.5 39.5t70.5 13q176 0 176 -215v-269zM486 365q-56 0 -88 -42t-32 -117q0 -80 31.5 -115t96.5 -35h113v149q0 74 -28.5 117t-92.5 43zM522 501q-10 0 -10 10v60q0 10 10 10h52q10 0 10 -10v-60
q0 -10 -10 -10h-52zM394 501q-10 0 -10 10v60q0 10 10 10h52q10 0 10 -10v-60q0 -10 -10 -10h-52z" />
    <glyph glyph-name="aKaf" unicode="&#x643;" horiz-adv-x="819" arabic-form="isolated" 
d="M406 424h22q28 0 39.5 -13.5t11.5 -35.5v-46q0 -33 -12.5 -44.5t-44.5 -11.5h-107q-10 0 -10 10v18q0 10 10 10h107q11 0 14.5 5t3.5 16v26q0 18 -6.5 23t-20.5 5h-56q-10 0 -10 10v13q0 7 5 12l79 94q8 10 16 2l15 -14q7 -7 -1 -15zM640 56q26 0 37.5 11.5t11.5 41.5
v561q0 10 10 10h35q10 0 10 -10v-562q0 -57 -25 -82.5t-79 -25.5h-477q-63 0 -90 25t-27 85v219q0 10 10 10h35q10 0 10 -10v-220q0 -29 11.5 -41t36.5 -12h491z" />
    <glyph glyph-name="aLam" unicode="&#x644;" horiz-adv-x="573" arabic-form="isolated" 
d="M111 219q4 6 14 0l31 -20q8 -5 3 -13q-20 -31 -38 -73.5t-18 -88.5q0 -47 17 -77.5t42 -48t54.5 -24.5t54.5 -7q38 0 69.5 8t54.5 26t35.5 46.5t12.5 69.5v653q0 10 10 10h35q10 0 10 -10v-651q0 -46 -13.5 -84.5t-41 -66.5t-70.5 -44t-101 -16q-54 0 -96.5 15t-71 42.5
t-43.5 66.5t-15 86q0 63 20.5 115t44.5 86z" />
    <glyph glyph-name="aMim" unicode="&#x645;" horiz-adv-x="575" arabic-form="isolated" 
d="M340 -7q-111 0 -156 82q-10 -17 -27 -24t-33 -15.5t-28 -24t-12 -47.5v-160h-55v181q0 30 9.5 49.5t24.5 32.5t32 21.5t32.5 17.5t26 20.5t12.5 30.5q-1 11 -1.5 24t-0.5 27q0 213 176 213t176 -213q0 -111 -45 -163t-131 -52zM340 365q-63 0 -91.5 -42.5t-28.5 -117.5
q0 -79 28.5 -117.5t91.5 -38.5t91 38.5t28 117.5q0 74 -28 117t-91 43z" />
    <glyph glyph-name="aNun" unicode="&#x646;" horiz-adv-x="567" arabic-form="isolated" 
d="M111 219q4 6 14 0l31 -20q8 -5 3 -13q-20 -31 -38 -73.5t-18 -88.5q0 -47 17 -77.5t42 -48t54.5 -24.5t54.5 -7q38 0 69.5 8t54.5 26t35.5 46.5t12.5 69.5v288q0 10 10 10h35q10 0 10 -10v-286q0 -46 -13.5 -84.5t-41 -66.5t-70.5 -44t-101 -16q-54 0 -96.5 15t-71 42.5
t-43.5 66.5t-15 86q0 63 20.5 115t44.5 86zM293 315q-10 0 -10 10v60q0 10 10 10h40q10 0 10 -10v-60q0 -10 -10 -10h-40z" />
    <glyph glyph-name="aWaw" unicode="&#x648;" horiz-adv-x="488" arabic-form="isolated" 
d="M145 -196q-10 0 -10 10v36q0 10 10 10h122q49 0 72.5 18t23.5 72v50h-113q-42 0 -76 10t-58.5 33t-37.5 61.5t-13 95.5q0 54 14 95.5t38.5 69t57 42t70.5 14.5q89 0 131.5 -53t42.5 -162v-255q0 -78 -32.5 -112.5t-102.5 -34.5h-139zM245 365q-55 0 -88.5 -42t-33.5 -125
q0 -40 7.5 -67t23.5 -43.5t40 -24t56 -7.5h113v148q0 77 -27 119t-91 42z" />
    <glyph glyph-name="aAlifMaksura" unicode="&#x649;" horiz-adv-x="758" arabic-form="isolated" 
d="M94 25q0 -45 14 -76t37.5 -50.5t55 -28t67.5 -8.5h242q30 0 49.5 4.5t31 12.5t15.5 19.5t4 26.5q0 20 -17 39t-42.5 38t-55 39.5t-55 45.5t-42.5 54.5t-17 66.5q0 25 8.5 51t28 47.5t51 35t76.5 13.5q33 0 58.5 -7t45 -18t34 -24t25.5 -25q5 -6 -3 -14l-26 -28
q-5 -6 -13 2q-24 24 -51.5 40.5t-70.5 16.5q-45 0 -74.5 -22.5t-29.5 -60.5q0 -29 17 -53t42.5 -46t55 -43t55 -43.5t42.5 -48t17 -57.5q0 -26 -7.5 -47.5t-24.5 -38t-44 -25.5t-66 -9h-268q-104 0 -163 57t-59 158q0 63 20.5 115t44.5 86q4 6 14 0l31 -20q8 -5 3 -13
q-20 -31 -38 -73.5t-18 -88.5z" />
    <glyph glyph-name="aYeh" unicode="&#x64a;" horiz-adv-x="758" arabic-form="isolated" 
d="M94 100q0 -45 14 -76t37.5 -50.5t55 -28t67.5 -8.5h242q30 0 49.5 4.5t31 12.5t15.5 19.5t4 26.5q0 20 -17 39t-42.5 38t-55 39.5t-55 45.5t-42.5 54.5t-17 66.5q0 25 8.5 51t28 47.5t51 35t76.5 13.5q33 0 58.5 -7t45 -18t34 -24t25.5 -25q5 -6 -3 -14l-26 -28
q-5 -6 -13 2q-24 24 -51.5 40.5t-70.5 16.5q-45 0 -74.5 -22.5t-29.5 -60.5q0 -29 17 -53t42.5 -46t55 -43t55 -43.5t42.5 -48t17 -57.5q0 -26 -7.5 -47.5t-24.5 -38t-44 -25.5t-66 -9h-268q-104 0 -163 57t-59 158q0 63 20.5 115t44.5 86q4 6 14 0l31 -20q8 -5 3 -13
q-20 -31 -38 -73.5t-18 -88.5zM388 -266q-10 0 -10 10v60q0 10 10 10h52q10 0 10 -10v-60q0 -10 -10 -10h-52zM260 -266q-10 0 -10 10v60q0 10 10 10h52q10 0 10 -10v-60q0 -10 -10 -10h-52z" />
    <glyph glyph-name="aAlifWasla" unicode="&#x671;" horiz-adv-x="205" arabic-form="isolated" 
d="M130 10q0 -10 -10 -10h-35q-10 0 -10 10v660q0 10 10 10h35q10 0 10 -10v-660zM14 788q10 0 10 11v95q0 7 8 7h13q8 0 8 -7v-12q15 8 32 13t35 5q45 0 62.5 -23t17.5 -55q0 -63 -54 -63h-144q-7 0 -7 7v15q0 7 7 7h12zM124 871q-17 0 -35.5 -6t-35.5 -13v-64h93
q17 0 21 6.5t4 27.5q0 23 -9.5 36t-37.5 13z" />
    <glyph glyph-name="aTteh" unicode="&#x679;" horiz-adv-x="803" arabic-form="isolated" 
d="M640 56q26 0 37.5 11.5t11.5 41.5v284q0 10 10 10h35q10 0 10 -10v-285q0 -57 -25 -82.5t-79 -25.5h-477q-63 0 -90 25t-27 85v219q0 10 10 10h35q10 0 10 -10v-220q0 -29 11.5 -41t36.5 -12h491v0zM301 467q10 0 10 15v169q0 7 8 7h13q8 0 8 -7v-90q15 8 32.5 13t34.5 5
q45 0 62.5 -23.5t17.5 -55.5q0 -62 -54 -62h-144q-7 0 -7 7v15q0 7 7 7h12zM411 550q-17 0 -36 -6t-35 -13v-64h93q17 0 21 6.5t4 27.5q0 23 -9.5 36t-37.5 13z" />
    <glyph glyph-name="aPeh" unicode="&#x67e;" horiz-adv-x="803" arabic-form="isolated" 
d="M640 56q26 0 37.5 11.5t11.5 41.5v284q0 10 10 10h35q10 0 10 -10v-285q0 -57 -25 -82.5t-79 -25.5h-477q-63 0 -90 25t-27 85v219q0 10 10 10h35q10 0 10 -10v-220q0 -29 11.5 -41t36.5 -12h491v0zM369 -279q-10 0 -10 10v60q0 10 10 10h52q10 0 10 -10v-60
q0 -10 -10 -10h-52zM430 -164q-10 0 -10 10v60q0 10 10 10h52q10 0 10 -10v-60q0 -10 -10 -10h-52zM302 -164q-10 0 -10 10v60q0 10 10 10h52q10 0 10 -10v-60q0 -10 -10 -10h-52z" />
    <glyph glyph-name="aTcheh" unicode="&#x686;" horiz-adv-x="531" arabic-form="isolated" 
d="M155 0q-38 0 -51.5 -21t-13.5 -48q0 -36 18 -53.5t63 -17.5h65q10 0 10 -10v-36q0 -10 -10 -10h-59q-145 0 -145 123q0 38 11 63t28.5 39.5t38 20.5t38.5 6h187q30 0 47.5 5t27 17.5t12 32.5t2.5 50q0 47 -7.5 84.5t-25.5 63.5t-47 40t-72 14q-35 0 -67 -12.5t-58 -43.5
q-6 -9 -14 -2l-27 24q-9 5 -3 14q26 33 66.5 55.5t103.5 22.5q66 0 107.5 -22.5t64.5 -58.5t31.5 -82t8.5 -93q0 -45 -6 -76.5t-21 -51t-40.5 -28.5t-64.5 -9h-198zM310 -198q-8 0 -8 7v43q0 8 8 8h37q8 0 8 -8v-43q0 -7 -8 -7h-37zM354 -115q-7 0 -7 7v44q0 7 7 7h38
q7 0 7 -7v-44q0 -7 -7 -7h-38zM261 -115q-7 0 -7 7v44q0 7 7 7h38q7 0 7 -7v-44q0 -7 -7 -7h-38z" />
    <glyph glyph-name="aDdal" unicode="&#x688;" horiz-adv-x="484" arabic-form="isolated" 
d="M426 171q0 -50 -7 -83t-23.5 -52.5t-43 -27.5t-66.5 -8h-212q-10 0 -10 10v36q0 10 10 10h200q30 0 48.5 5t28 16.5t12.5 31t3 48.5v97q0 56 -30 83.5t-96 27.5h-117q-10 0 -10 10v36q0 10 10 10h134q38 0 69.5 -10t53.5 -30.5t34 -52.5t12 -77v-80zM135 533q10 0 10 15
v169q0 7 8 7h13q8 0 8 -7v-90q15 8 32.5 13t34.5 5q45 0 62.5 -23.5t17.5 -55.5q0 -62 -54 -62h-144q-7 0 -7 7v15q0 7 7 7h12zM245 616q-17 0 -36 -6t-35 -13v-64h93q17 0 21 6.5t4 27.5q0 23 -9.5 36t-37.5 13z" />
    <glyph glyph-name="aRreh" unicode="&#x691;" horiz-adv-x="240" arabic-form="isolated" 
d="M9 -196q-10 0 -10 10v36q0 10 10 10h23q41 0 62.5 21t21.5 64v448q0 10 10 10h35q10 0 10 -10v-442q0 -71 -35 -109t-110 -38h-17zM59 533q10 0 10 15v169q0 7 8 7h13q8 0 8 -7v-90q15 8 32.5 13t34.5 5q45 0 62.5 -23.5t17.5 -55.5q0 -62 -54 -62h-144q-7 0 -7 7v15
q0 7 7 7h12zM169 616q-17 0 -36 -6t-35 -13v-64h93q17 0 21 6.5t4 27.5q0 23 -9.5 36t-37.5 13z" />
    <glyph glyph-name="aJeh" unicode="&#x698;" horiz-adv-x="240" arabic-form="isolated" 
d="M9 -196q-10 0 -10 10v36q0 10 10 10h23q41 0 62.5 21t21.5 64v448q0 10 10 10h35q10 0 10 -10v-442q0 -71 -35 -109t-110 -38h-17zM116 629q-10 0 -10 10v60q0 10 10 10h52q10 0 10 -10v-60q0 -10 -10 -10h-52zM181 501q-10 0 -10 10v60q0 10 10 10h52q10 0 10 -10v-60
q0 -10 -10 -10h-52zM53 501q-10 0 -10 10v60q0 10 10 10h52q10 0 10 -10v-60q0 -10 -10 -10h-52z" />
    <glyph glyph-name="aVeh" unicode="&#x6a4;" horiz-adv-x="923" arabic-form="isolated" 
d="M686 365q-60 0 -90 -41.5t-30 -110.5q0 -82 28.5 -119.5t91.5 -37.5t91 35t28 114q0 74 -28 117t-91 43zM545 56q-17 28 -26 65t-9 87q0 107 48 160t128 53q176 0 176 -213q0 -111 -45 -159.5t-131 -48.5h-523q-63 0 -90 25t-27 85v219q0 10 10 10h35q10 0 10 -10v-220
q0 -29 11.5 -41t36.5 -12h396zM658 629q-10 0 -10 10v60q0 10 10 10h52q10 0 10 -10v-60q0 -10 -10 -10h-52zM723 501q-10 0 -10 10v60q0 10 10 10h52q10 0 10 -10v-60q0 -10 -10 -10h-52zM595 501q-10 0 -10 10v60q0 10 10 10h52q10 0 10 -10v-60q0 -10 -10 -10h-52z" />
    <glyph glyph-name="aKeheh" unicode="&#x6a9;" horiz-adv-x="825" arabic-form="isolated" 
d="M599 403q38 0 69.5 -10t53.5 -30.5t34 -52.5t12 -77v-62q0 -50 -7 -83t-23.5 -52.5t-43 -27.5t-66.5 -8h-465q-63 0 -90 25t-27 85v219q0 10 10 10h35q10 0 10 -10v-220q0 -29 11.5 -41t36.5 -12h467q30 0 48.5 5t28 16.5t12.5 31t3 48.5v79q0 56 -30 83.5t-96 27.5h-167
q-10 0 -10 10v37q0 9 3 9l222 261q7 8 13 3l29 -23q10 -7 4 -14l-192 -227h115z" />
    <glyph glyph-name="aGaf" unicode="&#x6af;" horiz-adv-x="825" arabic-form="isolated" 
d="M599 403q38 0 69.5 -10t53.5 -30.5t34 -52.5t12 -77v-62q0 -50 -7 -83t-23.5 -52.5t-43 -27.5t-66.5 -8h-465q-63 0 -90 25t-27 85v219q0 10 10 10h35q10 0 10 -10v-220q0 -29 11.5 -41t36.5 -12h467q30 0 48.5 5t28 16.5t12.5 31t3 48.5v79q0 56 -30 83.5t-96 27.5h-167
q-10 0 -10 10v37q0 9 3 9l222 261q7 8 13 3l29 -23q10 -7 4 -14l-192 -227h115zM364 445q-8 -9 -14 -3l-26 22q-9 8 -4 14l218 256q7 9 13 3l27 -22q9 -8 4 -14z" />
    <glyph glyph-name="aNunGhunna" unicode="&#x6ba;" horiz-adv-x="567" arabic-form="isolated" 
d="M111 219q4 6 14 0l31 -20q8 -5 3 -13q-20 -31 -38 -73.5t-18 -88.5q0 -47 17 -77.5t42 -48t54.5 -24.5t54.5 -7q38 0 69.5 8t54.5 26t35.5 46.5t12.5 69.5v288q0 10 10 10h35q10 0 10 -10v-286q0 -46 -13.5 -84.5t-41 -66.5t-70.5 -44t-101 -16q-54 0 -96.5 15t-71 42.5
t-43.5 66.5t-15 86q0 63 20.5 115t44.5 86z" />
    <glyph glyph-name="aHehDoachashmi" unicode="&#x6be;" horiz-adv-x="621" arabic-form="isolated" 
d="M94 0q-23 0 -29.5 -6.5t-6.5 -27.5v-23q0 -10 -10 -10h-35q-10 0 -10 10v57q0 18 5.5 29t14.5 17t19.5 8t21.5 2h83q-10 14 -15.5 38.5t-5.5 47.5q0 72 37 109t97 37q55 0 91.5 -36t36.5 -99q0 -40 -8.5 -64t-15.5 -33h23q40 0 63 8t34.5 24.5t14.5 41t3 57.5
q0 87 -50.5 131.5t-141.5 44.5q-38 0 -78 -10t-78 -31q-4 -2 -8 -3.5t-6 2.5l-17 30q-6 11 0 15q48 29 96.5 41t100.5 12q68 0 114.5 -20t75 -53t40.5 -74.5t12 -84.5q0 -51 -8.5 -86.5t-27.5 -58t-50 -32.5t-75 -10h-307zM257 231q-20 0 -34 -7.5t-22.5 -20t-12 -28
t-3.5 -31.5q0 -26 5.5 -43t15 -27t21.5 -14t24 -4h13q13 0 24.5 3.5t20 13t13.5 26t5 43.5q0 17 -3 33t-11 28.5t-21.5 20t-34.5 7.5z" />
    <glyph glyph-name="aHehGoal" unicode="&#x6c1;" horiz-adv-x="457" arabic-form="isolated" 
d="M222 -7q-86 0 -131 52t-45 163q0 213 176 213t176 -213q0 -111 -44.5 -163t-131.5 -52zM222 365q-63 0 -91 -42.5t-28 -117.5q0 -79 28 -117.5t91 -38.5t91.5 38.5t28.5 117.5q0 74 -28.5 117t-91.5 43z" />
    <glyph glyph-name="aHehGoalHamzaabove.fina" unicode="&#x6c2;" horiz-adv-x="470" 
d="M354 128q0 -35 14.5 -53.5t56.5 -18.5h45q21 0 30.5 -6t9.5 -23q0 -19 -10 -23t-30 -4h-49q-63 0 -92.5 31.5t-29.5 82.5v226h-78q-69 0 -97.5 -35t-28.5 -101v-194q0 -10 -10 -10h-35q-10 0 -10 10v206q0 58 17.5 94.5t45.5 57t63 28t71 7.5h107q10 0 10 -10v-265z
M150 528q-8 13 -13.5 28t-5.5 38q0 13 4.5 29t15.5 30.5t30 24.5t48 10q23 0 44.5 -9.5t32.5 -26.5q3 -6 -2 -11l-15 -13q-5 -5 -11 1q-9 10 -22.5 16t-30.5 6q-26 0 -40.5 -18t-14.5 -44q0 -19 9.5 -35.5t20.5 -25.5h105q6 0 6 -7v-24q0 -7 -6 -7h-193q-6 0 -6 7v24
q0 7 6 7h38z" />
    <glyph glyph-name="aTehMarbutaGoal.fina" unicode="&#x6c3;" horiz-adv-x="473" 
d="M319 421v43q0 10 10 10h35q10 0 10 -10v-355q0 -30 11.5 -41.5t36.5 -11.5h51q20 0 30 -6t10 -23q0 -20 -9.5 -23.5t-30.5 -3.5h-54q-18 0 -36 3.5t-32 12.5t-23 26t-9 44q-18 -18 -45 -28.5t-71 -10.5q-75 0 -119.5 43.5t-44.5 133.5q0 54 13.5 91.5t38 61t58 34
t73.5 10.5h97zM207 103q64 0 88 29t24 79v154h-107q-54 0 -85.5 -31t-31.5 -110q0 -64 28.5 -92.5t83.5 -28.5zM278 535q-10 0 -10 10v60q0 10 10 10h52q10 0 10 -10v-60q0 -10 -10 -10h-52zM150 535q-10 0 -10 10v60q0 10 10 10h52q10 0 10 -10v-60q0 -10 -10 -10h-52z" />
    <glyph glyph-name="aYehFarsi" unicode="&#x6cc;" horiz-adv-x="758" arabic-form="isolated" 
d="M94 25q0 -45 14 -76t37.5 -50.5t55 -28t67.5 -8.5h242q30 0 49.5 4.5t31 12.5t15.5 19.5t4 26.5q0 20 -17 39t-42.5 38t-55 39.5t-55 45.5t-42.5 54.5t-17 66.5q0 25 8.5 51t28 47.5t51 35t76.5 13.5q33 0 58.5 -7t45 -18t34 -24t25.5 -25q5 -6 -3 -14l-26 -28
q-5 -6 -13 2q-24 24 -51.5 40.5t-70.5 16.5q-45 0 -74.5 -22.5t-29.5 -60.5q0 -29 17 -53t42.5 -46t55 -43t55 -43.5t42.5 -48t17 -57.5q0 -26 -7.5 -47.5t-24.5 -38t-44 -25.5t-66 -9h-268q-104 0 -163 57t-59 158q0 63 20.5 115t44.5 86q4 6 14 0l31 -20q8 -5 3 -13
q-20 -31 -38 -73.5t-18 -88.5z" />
    <glyph glyph-name="aYehBarri" unicode="&#x6d2;" horiz-adv-x="740" arabic-form="isolated" 
d="M318 350q-17 -27 -41.5 -48t-51 -38t-52.5 -32t-46.5 -31t-33.5 -33t-13 -39q0 -14 6 -27t20 -23.5t37 -16.5t58 -6h509q10 0 10 -10v-36q0 -10 -10 -10h-505q-53 0 -88 11t-55 28.5t-28 40t-8 46.5q0 35 15 61t38.5 46.5t52 37.5t56.5 34t52 35t37 42q2 3 6.5 3.5
t8.5 -2.5l25 -19q6 -6 1 -14z" />
    <glyph glyph-name="aYehBarriHamzaabove" unicode="&#x6d3;" horiz-adv-x="740" arabic-form="isolated" 
d="M318 350q-17 -27 -41.5 -48t-51 -38t-52.5 -32t-46.5 -31t-33.5 -33t-13 -39q0 -14 6 -27t20 -23.5t37 -16.5t58 -6h509q10 0 10 -10v-36q0 -10 -10 -10h-505q-53 0 -88 11t-55 28.5t-28 40t-8 46.5q0 35 15 61t38.5 46.5t52 37.5t56.5 34t52 35t37 42q2 3 6.5 3.5
t8.5 -2.5l25 -19q6 -6 1 -14zM67 425q-8 13 -13.5 28t-5.5 38q0 13 4.5 29t15.5 30.5t30 24.5t48 10q23 0 44.5 -9.5t32.5 -26.5q3 -6 -2 -11l-15 -13q-5 -5 -11 1q-9 10 -22.5 16t-30.5 6q-26 0 -40.5 -18t-14.5 -44q0 -19 9.5 -35.5t20.5 -25.5h105q6 0 6 -7v-24
q0 -7 -6 -7h-193q-6 0 -6 7v24q0 7 6 7h38z" />
    <glyph glyph-name="aAe.fina" unicode="&#x6d5;" horiz-adv-x="473" 
d="M319 421v43q0 10 10 10h35q10 0 10 -10v-355q0 -30 11.5 -41.5t36.5 -11.5h51q20 0 30 -6t10 -23q0 -20 -9.5 -23.5t-30.5 -3.5h-54q-18 0 -36 3.5t-32 12.5t-23 26t-9 44q-18 -18 -45 -28.5t-71 -10.5q-75 0 -119.5 43.5t-44.5 133.5q0 54 13.5 91.5t38 61t58 34
t73.5 10.5h97zM207 103q64 0 88 29t24 79v154h-107q-54 0 -85.5 -31t-31.5 -110q0 -64 28.5 -92.5t83.5 -28.5z" />
    <glyph glyph-name="aAlifWasla.fina" unicode="&#x671;" horiz-adv-x="231" arabic-form="final" 
d="M22 788q10 0 10 11v95q0 7 8 7h13q8 0 8 -7v-12q15 8 32 13t35 5q45 0 62.5 -23t17.5 -55q0 -63 -54 -63h-144q-7 0 -7 7v15q0 7 7 7h12zM132 871q-17 0 -35.5 -6t-35.5 -13v-64h93q17 0 21 6.5t4 27.5q0 23 -9.5 36t-37.5 13zM75 670q0 10 10 10h35q10 0 10 -10v-561
q0 -30 13 -41.5t38 -11.5h50q40 0 40 -28q0 -20 -9.5 -24t-30.5 -4h-39q-63 0 -90 25.5t-27 83.5v561z" />
    <glyph glyph-name="aPeh.fina" unicode="&#x67e;" horiz-adv-x="847" arabic-form="final" 
d="M744 126q0 -36 27.5 -53t69.5 -17h6q20 0 30 -5.5t10 -19.5q0 -23 -9.5 -27t-30.5 -4q-40 0 -68 11t-45 39q-20 -50 -94 -50h-477q-63 0 -90 25t-27 85v219q0 10 10 10h35q10 0 10 -10v-220q0 -29 11.5 -41t36.5 -12h491q26 0 37.5 11.5t11.5 41.5v284q0 10 10 10h35
q10 0 10 -10v-267zM370 -279q-10 0 -10 10v60q0 10 10 10h52q10 0 10 -10v-60q0 -10 -10 -10h-52zM431 -164q-10 0 -10 10v60q0 10 10 10h52q10 0 10 -10v-60q0 -10 -10 -10h-52zM303 -164q-10 0 -10 10v60q0 10 10 10h52q10 0 10 -10v-60q0 -10 -10 -10h-52z" />
    <glyph glyph-name="aPeh.init" unicode="&#x67e;" horiz-adv-x="254" arabic-form="initial" 
d="M0 0q-20 0 -30 4t-10 20q0 20 9.5 26t30.5 6h72q25 0 36.5 11.5t11.5 41.5v284q0 10 10 10h36q10 0 10 -10v-267q0 -65 -27 -95.5t-90 -30.5h-59zM96 -279q-10 0 -10 10v60q0 10 10 10h52q10 0 10 -10v-60q0 -10 -10 -10h-52zM157 -164q-10 0 -10 10v60q0 10 10 10h52
q10 0 10 -10v-60q0 -10 -10 -10h-52zM29 -164q-10 0 -10 10v60q0 10 10 10h52q10 0 10 -10v-60q0 -10 -10 -10h-52z" />
    <glyph glyph-name="aPeh.medi" unicode="&#x67e;" horiz-adv-x="287" arabic-form="medial" 
d="M184 131q0 -38 26.5 -56.5t70.5 -18.5h6q20 0 30 -5.5t10 -21.5t-9 -22.5t-31 -6.5q-42 0 -72 9.5t-44 43.5q-12 -24 -32 -38.5t-58 -14.5h-81q-19 0 -27.5 5.5t-8.5 21.5q0 17 8 23t28 6h75q19 0 30 5t16 15.5t6.5 26.5t1.5 37v253q0 10 10 10h35q10 0 10 -10v-262z
M127 -279q-10 0 -10 10v60q0 10 10 10h52q10 0 10 -10v-60q0 -10 -10 -10h-52zM188 -164q-10 0 -10 10v60q0 10 10 10h52q10 0 10 -10v-60q0 -10 -10 -10h-52zM60 -164q-10 0 -10 10v60q0 10 10 10h52q10 0 10 -10v-60q0 -10 -10 -10h-52z" />
    <glyph glyph-name="aTteh.fina" unicode="&#x679;" horiz-adv-x="847" arabic-form="final" 
d="M744 126q0 -36 27.5 -53t69.5 -17h6q20 0 30 -5.5t10 -19.5q0 -23 -9.5 -27t-30.5 -4q-40 0 -68 11t-45 39q-20 -50 -94 -50h-477q-63 0 -90 25t-27 85v219q0 10 10 10h35q10 0 10 -10v-220q0 -29 11.5 -41t36.5 -12h491q26 0 37.5 11.5t11.5 41.5v284q0 10 10 10h35
q10 0 10 -10v-267zM301 467q10 0 10 15v169q0 7 8 7h13q8 0 8 -7v-90q15 8 32.5 13t34.5 5q45 0 62.5 -23.5t17.5 -55.5q0 -62 -54 -62h-144q-7 0 -7 7v15q0 7 7 7h12zM411 550q-17 0 -36 -6t-35 -13v-64h93q17 0 21 6.5t4 27.5q0 23 -9.5 36t-37.5 13z" />
    <glyph glyph-name="aTteh.init" unicode="&#x679;" horiz-adv-x="255" arabic-form="initial" 
d="M0 0q-20 0 -30 5t-10 22q0 19 9.5 24t30.5 5h73q25 0 38.5 12t13.5 41v284q0 10 10 10h35q10 0 10 -10v-267q0 -32 -5 -56t-18 -39.5t-35.5 -23t-58.5 -7.5h-63zM70 533q10 0 10 15v169q0 7 8 7h13q8 0 8 -7v-90q15 8 32.5 13t34.5 5q45 0 62.5 -23.5t17.5 -55.5
q0 -62 -54 -62h-144q-7 0 -7 7v15q0 7 7 7h12zM180 616q-17 0 -36 -6t-35 -13v-64h93q17 0 21 6.5t4 27.5q0 23 -9.5 36t-37.5 13z" />
    <glyph glyph-name="aTteh.medi" unicode="&#x679;" horiz-adv-x="283" arabic-form="medial" 
d="M180 131q0 -38 26.5 -56.5t70.5 -18.5h6q20 0 30 -5.5t10 -21.5t-9 -22.5t-31 -6.5q-42 0 -72 9.5t-44 43.5q-12 -24 -32 -38.5t-58 -14.5h-77q-19 0 -29.5 5.5t-10.5 21.5q0 17 10 23t30 6h71q19 0 30 5t16 15.5t6.5 26.5t1.5 37v253q0 10 10 10h35q10 0 10 -10v-262z
M67 533q10 0 10 15v169q0 7 8 7h13q8 0 8 -7v-90q15 8 32.5 13t34.5 5q45 0 62.5 -23.5t17.5 -55.5q0 -62 -54 -62h-144q-7 0 -7 7v15q0 7 7 7h12zM177 616q-17 0 -36 -6t-35 -13v-64h93q17 0 21 6.5t4 27.5q0 23 -9.5 36t-37.5 13z" />
    <glyph glyph-name="aVeh.fina" unicode="&#x6a4;" horiz-adv-x="957" arabic-form="final" 
d="M698 363q-28 0 -51.5 -9t-41 -26t-27.5 -41t-10 -54q0 -29 10.5 -55t28.5 -47t41.5 -36.5t49.5 -25.5q26 10 49.5 25.5t41 36.5t28 47t10.5 55q0 62 -36.5 96t-92.5 34zM610 56q-44 32 -72.5 76t-28.5 102q0 37 13 71t37 60t59 41t80 15q46 0 81.5 -14t59.5 -39
t36.5 -58.5t12.5 -72.5q0 -29 -8 -56t-22 -51t-33 -43t-40 -31h172q20 0 30 -4.5t10 -24.5q0 -15 -9.5 -21t-30.5 -6h-129q-36 0 -68 3t-61 21q-33 -18 -70.5 -21t-66.5 -3h-399q-63 0 -90 25t-27 85v219q0 10 10 10h35q10 0 10 -10v-220q0 -29 11.5 -41t36.5 -12h461z
M669 629q-10 0 -10 10v60q0 10 10 10h52q10 0 10 -10v-60q0 -10 -10 -10h-52zM734 501q-10 0 -10 10v60q0 10 10 10h52q10 0 10 -10v-60q0 -10 -10 -10h-52zM606 501q-10 0 -10 10v60q0 10 10 10h52q10 0 10 -10v-60q0 -10 -10 -10h-52z" />
    <glyph glyph-name="aVeh.init" unicode="&#x6a4;" horiz-adv-x="518" arabic-form="initial" 
d="M0 0q-21 0 -30.5 5.5t-9.5 25.5q0 14 10 19.5t30 5.5h140q-17 28 -26.5 65t-9.5 87q0 107 48.5 160t127.5 53q176 0 176 -213q0 -111 -44.5 -159.5t-131.5 -48.5h-280zM280 365q-59 0 -89 -41.5t-30 -110.5q0 -82 28 -119.5t91 -37.5t91.5 35t28.5 114q0 74 -28.5 117
t-91.5 43zM249 629q-10 0 -10 10v60q0 10 10 10h52q10 0 10 -10v-60q0 -10 -10 -10h-52zM314 501q-10 0 -10 10v60q0 10 10 10h52q10 0 10 -10v-60q0 -10 -10 -10h-52zM186 501q-10 0 -10 10v60q0 10 10 10h52q10 0 10 -10v-60q0 -10 -10 -10h-52z" />
    <glyph glyph-name="aVeh.medi" unicode="&#x6a4;" horiz-adv-x="504" arabic-form="medial" 
d="M245 421q46 0 81.5 -14t59.5 -39t36.5 -58.5t12.5 -72.5q0 -29 -8 -56t-22 -51t-33 -43t-40 -31h172q20 0 30 -4.5t10 -24.5q0 -15 -9.5 -21t-30.5 -6h-129q-36 0 -68 3t-61 21q-33 -18 -70.5 -21t-66.5 -3h-109q-40 0 -40 29q0 16 9.5 21.5t30.5 5.5h157
q-44 32 -72.5 76t-28.5 102q0 37 13 71t37 60t59 41t80 15zM245 363q-28 0 -51.5 -9t-41 -26t-27.5 -41t-10 -54q0 -29 10.5 -55t28.5 -47t41.5 -36.5t49.5 -25.5q26 10 49.5 25.5t41 36.5t28 47t10.5 55q0 62 -36.5 96t-92.5 34zM219 629q-10 0 -10 10v60q0 10 10 10h52
q10 0 10 -10v-60q0 -10 -10 -10h-52zM284 501q-10 0 -10 10v60q0 10 10 10h52q10 0 10 -10v-60q0 -10 -10 -10h-52zM156 501q-10 0 -10 10v60q0 10 10 10h52q10 0 10 -10v-60q0 -10 -10 -10h-52z" />
    <glyph glyph-name="aTcheh.fina" unicode="&#x686;" horiz-adv-x="596" arabic-form="final" 
d="M155 0q-38 0 -51.5 -21t-13.5 -48q0 -36 18 -53.5t63 -17.5h65q10 0 10 -10v-36q0 -10 -10 -10h-59q-145 0 -145 123q0 38 11 63t28.5 39.5t38 20.5t38.5 6h196q30 0 47.5 5t27 17.5t12 32.5t2.5 50q0 47 -7.5 84.5t-25.5 63.5t-47 40t-72 14q-35 0 -67 -12.5t-58 -43.5
q-6 -9 -14 -2l-27 24q-9 5 -3 14q26 33 66.5 55.5t103.5 22.5q65 0 106.5 -22t64.5 -57.5t32 -80.5t9 -92v-46q0 -34 23.5 -50.5t61.5 -16.5h16q20 0 30 -5.5t10 -22.5q0 -18 -9.5 -23t-30.5 -5q-42 0 -73 10.5t-45 45.5q-15 -30 -42.5 -43t-72.5 -13h-207zM310 -198
q-8 0 -8 7v43q0 8 8 8h37q8 0 8 -8v-43q0 -7 -8 -7h-37zM354 -115q-7 0 -7 7v44q0 7 7 7h38q7 0 7 -7v-44q0 -7 -7 -7h-38zM261 -115q-7 0 -7 7v44q0 7 7 7h38q7 0 7 -7v-44q0 -7 -7 -7h-38z" />
    <glyph glyph-name="aTcheh.init" unicode="&#x686;" horiz-adv-x="511" arabic-form="initial" 
d="M0 0q-40 0 -40 26q0 21 9.5 25.5t30.5 4.5h302q30 0 47.5 5t27 17.5t12 32.5t2.5 50q0 47 -7.5 84.5t-25.5 63.5t-47 40t-72 14q-35 0 -67 -12.5t-58 -43.5q-6 -9 -14 -2l-27 24q-9 5 -3 14q26 33 66.5 55.5t103.5 22.5q66 0 107.5 -22.5t64.5 -58.5t31.5 -82t8.5 -93
q0 -45 -6 -76.5t-21 -51t-40.5 -28.5t-64.5 -9h-320zM236 -279q-10 0 -10 10v60q0 10 10 10h52q10 0 10 -10v-60q0 -10 -10 -10h-52zM297 -164q-10 0 -10 10v60q0 10 10 10h52q10 0 10 -10v-60q0 -10 -10 -10h-52zM169 -164q-10 0 -10 10v60q0 10 10 10h52q10 0 10 -10v-60
q0 -10 -10 -10h-52z" />
    <glyph glyph-name="aTcheh.medi" unicode="&#x686;" horiz-adv-x="553" arabic-form="medial" 
d="M452 123q0 -34 23.5 -50.5t61.5 -16.5h16q20 0 30 -5.5t10 -22.5q0 -18 -9.5 -23t-30.5 -5q-42 0 -73 10.5t-45 45.5q-15 -30 -42.5 -43t-72.5 -13h-320q-40 0 -40 26q0 21 9.5 25.5t30.5 4.5h302q30 0 47.5 5t27 17.5t12 32.5t2.5 50q0 47 -7.5 84.5t-25.5 63.5t-47 40
t-72 14q-35 0 -67 -12.5t-58 -43.5q-6 -9 -14 -2l-27 24q-9 5 -3 14q26 33 66.5 55.5t103.5 22.5q65 0 106.5 -22t64.5 -57.5t32 -80.5t9 -92v-46zM236 -279q-10 0 -10 10v60q0 10 10 10h52q10 0 10 -10v-60q0 -10 -10 -10h-52zM297 -164q-10 0 -10 10v60q0 10 10 10h52
q10 0 10 -10v-60q0 -10 -10 -10h-52zM169 -164q-10 0 -10 10v60q0 10 10 10h52q10 0 10 -10v-60q0 -10 -10 -10h-52z" />
    <glyph glyph-name="aDdal.fina" unicode="&#x688;" horiz-adv-x="529" arabic-form="final" 
d="M426 132q0 -38 26.5 -57t70.5 -19h6q20 0 30 -6t10 -23t-9.5 -22t-30.5 -5q-42 0 -75 11t-45 47q-14 -32 -42 -45t-73 -13h-220q-10 0 -10 10v36q0 10 10 10h200q30 0 48.5 5t28 16.5t12.5 31t3 48.5v97q0 56 -30 83.5t-96 27.5h-117q-10 0 -10 10v36q0 10 10 10h134
q38 0 69.5 -10t53.5 -30.5t34 -52.5t12 -77v-119zM135 533q10 0 10 15v169q0 7 8 7h13q8 0 8 -7v-90q15 8 32.5 13t34.5 5q45 0 62.5 -23.5t17.5 -55.5q0 -62 -54 -62h-144q-7 0 -7 7v15q0 7 7 7h12zM245 616q-17 0 -36 -6t-35 -13v-64h93q17 0 21 6.5t4 27.5q0 23 -9.5 36
t-37.5 13z" />
    <glyph glyph-name="aJeh.fina" unicode="&#x698;" horiz-adv-x="273" arabic-form="final" 
d="M171 131q0 -38 26.5 -56.5t70.5 -18.5h5q20 0 30 -5.5t10 -19.5q0 -23 -9.5 -27t-30.5 -4q-33 0 -58 5t-44 26v-80q0 -71 -35 -109t-110 -38h-17q-10 0 -10 10v36q0 10 10 10h23q41 0 62.5 21t21.5 64v448q0 10 10 10h35q10 0 10 -10v-262zM119 629q-10 0 -10 10v60
q0 10 10 10h52q10 0 10 -10v-60q0 -10 -10 -10h-52zM184 501q-10 0 -10 10v60q0 10 10 10h52q10 0 10 -10v-60q0 -10 -10 -10h-52zM56 501q-10 0 -10 10v60q0 10 10 10h52q10 0 10 -10v-60q0 -10 -10 -10h-52z" />
    <glyph glyph-name="aRreh.fina" unicode="&#x691;" horiz-adv-x="273" arabic-form="final" 
d="M171 131q0 -38 26.5 -56.5t70.5 -18.5h5q20 0 30 -5.5t10 -19.5q0 -23 -9.5 -27t-30.5 -4q-33 0 -58 5t-44 26v-80q0 -71 -35 -109t-110 -38h-17q-10 0 -10 10v36q0 10 10 10h23q41 0 62.5 21t21.5 64v448q0 10 10 10h35q10 0 10 -10v-262zM60 533q10 0 10 15v169
q0 7 8 7h13q8 0 8 -7v-90q15 8 32.5 13t34.5 5q45 0 62.5 -23.5t17.5 -55.5q0 -62 -54 -62h-144q-7 0 -7 7v15q0 7 7 7h12zM170 616q-17 0 -36 -6t-35 -13v-64h93q17 0 21 6.5t4 27.5q0 23 -9.5 36t-37.5 13z" />
    <glyph glyph-name="aKeheh.fina" unicode="&#x6a9;" horiz-adv-x="868" arabic-form="final" 
d="M414 347q-10 0 -10 10v37q0 9 3 9l222 261q7 8 13 3l29 -23q10 -7 4 -14l-192 -227h113q38 0 69.5 -10t53.5 -30.5t34 -52.5t12 -77v-101q0 -38 26.5 -57t70.5 -19h6q20 0 30 -6t10 -23t-9.5 -22t-30.5 -5q-42 0 -75 11t-45 47q-14 -32 -42 -45t-73 -13h-470
q-63 0 -90 25t-27 85v219q0 10 10 10h35q10 0 10 -10v-220q0 -29 11.5 -41t36.5 -12h464q30 0 48.5 5t28 16.5t12.5 31t3 48.5v79q0 56 -30 83.5t-96 27.5h-165z" />
    <glyph glyph-name="aKeheh.init" unicode="&#x6a9;" horiz-adv-x="492" arabic-form="initial" 
d="M81 347q-10 0 -10 10v37q0 9 3 9l222 261q7 8 13 3l29 -23q10 -7 4 -14l-192 -227h115q38 0 69.5 -10t53.5 -30.5t34 -52.5t12 -77v-62q0 -50 -7 -83t-23.5 -52.5t-43 -27.5t-66.5 -8h-294q-20 0 -30 5.5t-10 22.5q0 18 9.5 23t30.5 5h282q30 0 48.5 5t28 16.5t12.5 31
t3 48.5v79q0 56 -30 83.5t-96 27.5h-167z" />
    <glyph glyph-name="aKeheh.medi" unicode="&#x6a9;" horiz-adv-x="535" arabic-form="medial" 
d="M265 403q38 0 69.5 -10t53.5 -30.5t34 -52.5t12 -77v-101q0 -38 26.5 -57t70.5 -19h6q20 0 30 -6t10 -23t-9.5 -22t-30.5 -5q-42 0 -75 11t-45 47q-14 -32 -42 -45t-73 -13h-302q-40 0 -40 28q0 20 9.5 24t30.5 4h282q30 0 48.5 5t28 16.5t12.5 31t3 48.5v79
q0 56 -30 83.5t-96 27.5h-167q-10 0 -10 10v37q0 9 3 9l222 261q7 8 13 3l29 -23q10 -7 4 -14l-192 -227h115z" />
    <glyph glyph-name="aGaf.fina" unicode="&#x6af;" horiz-adv-x="868" arabic-form="final" 
d="M414 347q-10 0 -10 10v37q0 9 3 9l222 261q7 8 13 3l29 -23q10 -7 4 -14l-192 -227h113q38 0 69.5 -10t53.5 -30.5t34 -52.5t12 -77v-101q0 -38 26.5 -57t70.5 -19h6q20 0 30 -6t10 -23t-9.5 -22t-30.5 -5q-42 0 -75 11t-45 47q-14 -32 -42 -45t-73 -13h-470
q-63 0 -90 25t-27 85v219q0 10 10 10h35q10 0 10 -10v-220q0 -29 11.5 -41t36.5 -12h464q30 0 48.5 5t28 16.5t12.5 31t3 48.5v79q0 56 -30 83.5t-96 27.5h-165zM364 445q-8 -9 -14 -3l-26 22q-9 8 -4 14l218 256q7 9 13 3l27 -22q9 -8 4 -14z" />
    <glyph glyph-name="aGaf.init" unicode="&#x6af;" horiz-adv-x="482" arabic-form="initial" 
d="M41 445q-8 -9 -14 -3l-26 22q-9 8 -4 14l218 256q7 9 13 3l27 -22q9 -8 4 -14zM81 347q-10 0 -10 10v37q0 9 3 9l222 261q7 8 13 3l29 -23q10 -7 4 -14l-192 -227h115q38 0 69.5 -10t53.5 -30.5t34 -52.5t12 -77v-62q0 -50 -7 -83t-23.5 -52.5t-43 -27.5t-66.5 -8h-294
q-20 0 -30 5.5t-10 22.5q0 18 9.5 23t30.5 5h282q30 0 48.5 5t28 16.5t12.5 31t3 48.5v79q0 56 -30 83.5t-96 27.5h-167z" />
    <glyph glyph-name="aGaf.medi" unicode="&#x6af;" horiz-adv-x="536" arabic-form="medial" 
d="M265 403q38 0 69.5 -10t53.5 -30.5t34 -52.5t12 -77v-101q0 -38 26.5 -57t70.5 -19h6q20 0 30 -6t10 -23t-9.5 -22t-30.5 -5q-42 0 -75 11t-45 47q-14 -32 -42 -45t-73 -13h-302q-40 0 -40 28q0 20 9.5 24t30.5 4h282q30 0 48.5 5t28 16.5t12.5 31t3 48.5v79
q0 56 -30 83.5t-96 27.5h-167q-10 0 -10 10v37q0 9 3 9l222 261q7 8 13 3l29 -23q10 -7 4 -14l-192 -227h115zM41 445q-8 -9 -14 -3l-26 22q-9 8 -4 14l218 256q7 9 13 3l27 -22q9 -8 4 -14z" />
    <glyph glyph-name="aNunGhunna.fina" unicode="&#x6ba;" horiz-adv-x="592" arabic-form="final" 
d="M443 305q0 10 10 10h35q10 0 10 -10v-174q0 -38 23.5 -56.5t65.5 -18.5h5q24 0 32 -5.5t8 -22.5t-9.5 -22.5t-30.5 -5.5q-30 0 -53.5 7t-40.5 25v-13q0 -46 -13.5 -84.5t-41 -66.5t-70.5 -44t-101 -16q-54 0 -96.5 15t-71 42.5t-43.5 66.5t-15 86q0 63 20.5 115t44.5 86
q4 6 14 0l31 -20q8 -5 3 -13q-20 -31 -38 -73.5t-18 -88.5q0 -47 17 -77.5t43 -48t56.5 -24.5t58.5 -7q34 0 64.5 8t52.5 26t35 46.5t13 69.5v288z" />
    <glyph glyph-name="aHehYeh.fina" unicode="&#x6c0;" horiz-adv-x="482" arabic-form="final" 
d="M328 421v43q0 10 10 10h35q10 0 10 -10v-355q0 -30 11.5 -41.5t36.5 -11.5h50q20 0 30 -6t10 -23q0 -20 -9.5 -23.5t-30.5 -3.5h-36q-96 0 -113 83q-18 -18 -46 -27t-61 -9q-78 0 -128 44t-50 133q0 54 15 91.5t40.5 61t59 34t69.5 10.5h97zM214 103q66 0 90 39.5
t24 106.5v116h-107q-26 0 -47 -7t-37 -23.5t-24.5 -43.5t-8.5 -67q0 -58 28 -89.5t82 -31.5zM169 545q-8 12 -14 29.5t-6 37.5q0 14 4.5 31t15.5 32t30 25t48 10q23 0 42 -7.5t31 -24.5q2 -5 1.5 -7t-1.5 -4l-17 -10q-7 -6 -11 -2q-8 9 -20.5 16t-28.5 7q-32 0 -46.5 -20
t-14.5 -44q0 -23 12.5 -42t24.5 -27h104q6 0 6 -7v-19q0 -7 -6 -7h-193q-6 0 -6 7v19q0 7 6 7h39z" />
    <glyph glyph-name="aHehGoal.fina" unicode="&#x6c1;" horiz-adv-x="470" arabic-form="final" 
d="M354 128q0 -35 14.5 -53.5t56.5 -18.5h45q21 0 30.5 -6t9.5 -23q0 -19 -10 -23t-30 -4h-49q-63 0 -92.5 31.5t-29.5 82.5v226h-78q-69 0 -97.5 -35t-28.5 -101v-194q0 -10 -10 -10h-35q-10 0 -10 10v206q0 58 17.5 94.5t45.5 57t63 28t71 7.5h107q10 0 10 -10v-265z" />
    <glyph glyph-name="aHehGoal.init" unicode="&#x6c1;" horiz-adv-x="261" arabic-form="initial" 
d="M193 -133q-5 -1 -11 -1h-11q-23 0 -45.5 5.5t-40 18t-28.5 32t-11 48.5q0 13 3 30h-49q-20 0 -30 5t-10 22q0 20 9.5 24.5t30.5 4.5h77q25 0 36.5 11.5t11.5 41.5v284q0 10 10 10h35q10 0 10 -10v-267q0 -52 -16.5 -81.5t-54.5 -39.5q-4 -16 -4 -30q0 -18 7.5 -29t20 -17
t28.5 -8t32 -2q10 0 10 -10v-32q0 -8 -10 -10z" />
    <glyph glyph-name="aHehGoal.medi" unicode="&#x6c1;" horiz-adv-x="418" arabic-form="medial" 
d="M124 56q10 0 10 -10v-71q0 -45 24.5 -68t71.5 -23v50q0 26 5 48.5t17.5 39t33 25.5t51.5 9h81q20 0 30 -5t10 -22q0 -29 -40 -29h-71q-32 0 -47 -12.5t-15 -46.5v-104q0 -10 -10 -10h-17q-81 0 -130 34t-49 111v28h-79q-40 0 -40 28q0 17 9.5 22.5t30.5 5.5h124z" />
    <glyph glyph-name="aHehDoachashmi.fina" unicode="&#x6be;" horiz-adv-x="544" arabic-form="final" 
d="M94 0q-23 0 -29.5 -6.5t-6.5 -27.5v-23q0 -10 -10 -10h-35q-10 0 -10 10v57q0 18 5.5 29t14.5 17t19.5 8t21.5 2h56v149q0 107 48 161.5t125 54.5q88 0 132.5 -53.5t44.5 -156.5q0 -46 -13.5 -87.5t-31.5 -67.5h119q41 0 41 -29q0 -15 -10.5 -21t-30.5 -6h-108
q11 -12 18 -30t7 -38q0 -25 -9 -48.5t-29.5 -42t-53 -30t-79.5 -11.5q-92 0 -131 35.5t-39 98.5v66h-26zM292 365q-53 0 -84.5 -38t-31.5 -110v-161h140q26 0 44.5 14.5t30 37t17 49.5t5.5 52q0 73 -29.5 114.5t-91.5 41.5zM293 -144q61 0 86 18t25 54q0 15 -4.5 28.5
t-17.5 23t-36.5 15t-61.5 5.5h-108v-64q0 -47 29.5 -63.5t87.5 -16.5z" />
    <glyph glyph-name="aHehDoachashmi.init" unicode="&#x6be;" horiz-adv-x="606" arabic-form="initial" 
d="M295 363q-38 0 -78 -10t-78 -31q-4 -2 -8 -3.5t-6 2.5l-17 30q-6 11 0 15q48 29 96.5 41t100.5 12q68 0 114.5 -20t75 -53t40.5 -74.5t12 -84.5q0 -51 -8.5 -86.5t-27.5 -58t-50 -32.5t-75 -10h-386q-20 0 -30 5t-10 21q0 20 9.5 25t30.5 5h132q-10 14 -15.5 38.5
t-5.5 47.5q0 72 37 109t97 37q55 0 91.5 -36t36.5 -99q0 -40 -8.5 -64t-15.5 -33h23q40 0 63 8t34.5 24.5t14.5 41t3 57.5q0 87 -50.5 131.5t-141.5 44.5zM242 231q-20 0 -34 -7.5t-22.5 -20t-12 -28t-3.5 -31.5q0 -26 5.5 -43t15 -27t21.5 -14t24 -4h13q13 0 24.5 3.5
t20 13t13.5 26t5 43.5q0 17 -3 33t-11 28.5t-21.5 20t-34.5 7.5z" />
    <glyph glyph-name="aHehDoachashmi.medi" unicode="&#x6be;" horiz-adv-x="548" arabic-form="medial" 
d="M-40 28q0 19 9.5 23.5t30.5 4.5h124v149q0 107 48 161.5t125 54.5q88 0 132.5 -53.5t44.5 -156.5q0 -46 -13.5 -87.5t-31.5 -67.5h119q41 0 41 -29q0 -15 -10.5 -21t-30.5 -6h-108q11 -12 18 -30t7 -38q0 -25 -9 -48.5t-29.5 -42t-53 -30t-79.5 -11.5q-92 0 -131 35.5
t-39 98.5v66h-124q-40 0 -40 28zM296 365q-53 0 -84.5 -38t-31.5 -110v-161h140q26 0 44.5 14.5t30 37t17 49.5t5.5 52q0 73 -29.5 114.5t-91.5 41.5zM297 -144q61 0 86 18t25 54q0 15 -4.5 28.5t-17.5 23t-36.5 15t-61.5 5.5h-108v-64q0 -47 29.5 -63.5t87.5 -16.5z" />
    <glyph glyph-name="aYehBarri.fina" unicode="&#x6d2;" horiz-adv-x="326" arabic-form="final" 
d="M571 -140q10 0 10 -10v-36q0 -10 -10 -10h-411q-39 0 -65.5 9.5t-42.5 26.5t-22.5 39.5t-6.5 48.5q0 37 13 61.5t33.5 39.5t46.5 21t53 6h157q20 0 30 -4.5t10 -23.5q0 -28 -40 -28h-165q-47 0 -67.5 -19t-20.5 -51q0 -22 6.5 -35.5t19 -21t31 -10.5t41.5 -3h400z" />
    <glyph glyph-name="aYehBarriHamzaabove.fina" unicode="&#x6d3;" horiz-adv-x="326" arabic-form="final" 
d="M571 -140q10 0 10 -10v-36q0 -10 -10 -10h-411q-39 0 -65.5 9.5t-42.5 26.5t-22.5 39.5t-6.5 48.5q0 37 13 61.5t33.5 39.5t46.5 21t53 6h157q20 0 30 -4.5t10 -23.5q0 -28 -40 -28h-165q-47 0 -67.5 -19t-20.5 -51q0 -22 6.5 -35.5t19 -21t31 -10.5t41.5 -3h400zM95 154
q-8 13 -13.5 28t-5.5 38q0 13 4.5 29t15.5 30.5t30 24.5t48 10q23 0 44.5 -9.5t32.5 -26.5q3 -6 -2 -11l-15 -13q-5 -5 -11 1q-9 10 -22.5 16t-30.5 6q-26 0 -40.5 -18t-14.5 -44q0 -19 9.5 -35.5t20.5 -25.5h105q6 0 6 -7v-24q0 -7 -6 -7h-193q-6 0 -6 7v24q0 7 6 7h38z
" />
    <glyph glyph-name="aAlifMaksura.init" unicode="&#x649;" horiz-adv-x="255" arabic-form="initial" 
d="M0 0q-20 0 -30 5t-10 22q0 19 9.5 24t30.5 5h73q25 0 38.5 12t13.5 41v284q0 10 10 10h35q10 0 10 -10v-267q0 -32 -5 -56t-18 -39.5t-35.5 -23t-58.5 -7.5h-63z" />
    <glyph glyph-name="aAlifMaksura.medi" unicode="&#x649;" horiz-adv-x="283" arabic-form="medial" 
d="M180 131q0 -38 26.5 -56.5t70.5 -18.5h6q20 0 30 -5.5t10 -21.5t-9 -22.5t-31 -6.5q-42 0 -72 9.5t-44 43.5q-12 -24 -32 -38.5t-58 -14.5h-77q-19 0 -29.5 5.5t-10.5 21.5q0 17 10 23t30 6h71q19 0 30 5t16 15.5t6.5 26.5t1.5 37v253q0 10 10 10h35q10 0 10 -10v-262z
" />
    <glyph glyph-name="aYehFarsi.fina" unicode="&#x6cc;" horiz-adv-x="728" arabic-form="final" 
d="M94 25q0 -45 14 -76t37.5 -50.5t55 -28t67.5 -8.5h248q59 0 82 18.5t23 51.5q0 26 -14.5 43.5t-42.5 32.5t-68.5 29t-91.5 33q-9 3 -6 12l17 40q3 10 12 7q32 -12 62.5 -25t60.5 -23.5t58.5 -17.5t57.5 -7h62q20 0 30 -3t10 -20q0 -20 -9.5 -26.5t-30.5 -6.5h-74
q5 -8 12.5 -28t7.5 -43t-7.5 -45.5t-25 -40t-45.5 -28.5t-68 -11h-269q-104 0 -163 57t-59 158q0 63 20.5 115t44.5 86q4 6 14 0l31 -20q8 -5 3 -13q-20 -31 -38 -73.5t-18 -88.5z" />
    <glyph glyph-name="aYehFarsi.init" unicode="&#x6cc;" horiz-adv-x="254" arabic-form="initial" 
d="M0 0q-20 0 -30 4t-10 20q0 20 9.5 26t30.5 6h72q25 0 36.5 11.5t11.5 41.5v284q0 10 10 10h36q10 0 10 -10v-267q0 -65 -27 -95.5t-90 -30.5h-59zM154 -164q-10 0 -10 10v60q0 10 10 10h52q10 0 10 -10v-60q0 -10 -10 -10h-52zM26 -164q-10 0 -10 10v60q0 10 10 10h52
q10 0 10 -10v-60q0 -10 -10 -10h-52z" />
    <glyph glyph-name="aYehFarsi.medi" unicode="&#x6cc;" horiz-adv-x="287" arabic-form="medial" 
d="M184 131q0 -38 26.5 -56.5t70.5 -18.5h6q20 0 30 -5.5t10 -21.5t-9 -22.5t-31 -6.5q-42 0 -72 9.5t-44 43.5q-12 -24 -32 -38.5t-58 -14.5h-81q-19 0 -27.5 5.5t-8.5 21.5q0 17 8 23t28 6h75q19 0 30 5t16 15.5t6.5 26.5t1.5 37v253q0 10 10 10h35q10 0 10 -10v-262z
M189 -164q-10 0 -10 10v60q0 10 10 10h52q10 0 10 -10v-60q0 -10 -10 -10h-52zM61 -164q-10 0 -10 10v60q0 10 10 10h52q10 0 10 -10v-60q0 -10 -10 -10h-52z" />
    <glyph glyph-name="aShadda_aDammatan" unicode="&#xfc5e;" horiz-adv-x="0" arabic-form="isolated" 
d="M-127 896q0 10 10 10h16q10 0 10 -10v-74q0 -19 10 -29.5t26 -10.5t26 9.5t10 26.5v78q0 10 10 10h16q10 0 10 -10v-78q0 -17 10 -26.5t26 -9.5q15 0 25.5 10.5t10.5 29.5v74q0 10 10 10h16q10 0 10 -10v-71q0 -35 -20.5 -56t-51.5 -21q-34 0 -53 22q-19 -22 -55 -22
q-31 0 -51.5 21t-20.5 56v71zM-145 1082q-10 0 -10 10v12q0 10 10 10h4q32 0 53.5 -20.5t21.5 -67.5q0 -26 15.5 -32t45.5 -6q23 0 38 4.5t25 11.5t14.5 14.5t6.5 13.5h-35q-33 0 -52.5 18t-19.5 48q0 32 21.5 53t51.5 21q32 0 53 -21t21 -69q0 -36 -9.5 -60t-26 -39
t-39 -21t-49.5 -6q-20 0 -37 2t-30 9.5t-20 21.5t-7 37q0 29 -10.5 42.5t-27.5 13.5h-8zM85 1063q2 4 2 9.5v9.5q0 29 -12 44t-30 15q-20 0 -30 -14t-10 -29q0 -11 5 -17.5t11.5 -10.5t14 -5.5t13.5 -1.5h36z" />
    <glyph glyph-name="aShadda_aKasratan" unicode="&#xfc5f;" horiz-adv-x="0" arabic-form="isolated" 
d="M-127 1057q0 10 10 10h16q10 0 10 -10v-74q0 -19 10 -29.5t26 -10.5t26 9.5t10 26.5v78q0 10 10 10h16q10 0 10 -10v-78q0 -17 10 -26.5t26 -9.5q15 0 25.5 10.5t10.5 29.5v74q0 10 10 10h16q10 0 10 -10v-71q0 -35 -20.5 -56t-51.5 -21q-34 0 -53 22q-19 -22 -55 -22
q-31 0 -51.5 21t-20.5 56v71zM-126 750q-10 0 -10 10v11q0 10 10 10h254q10 0 10 -10v-11q0 -10 -10 -10h-254zM-126 820q-10 0 -10 10v11q0 10 10 10h254q10 0 10 -10v-11q0 -10 -10 -10h-254z" />
    <glyph glyph-name="aShadda_aFatha" unicode="&#xfc60;" horiz-adv-x="0" arabic-form="isolated" 
d="M-128 961q-10 0 -10 10v11q0 10 10 10h254q10 0 10 -10v-11q0 -10 -10 -10h-254zM-127 896q0 10 10 10h16q10 0 10 -10v-74q0 -19 10 -29.5t26 -10.5t26 9.5t10 26.5v78q0 10 10 10h16q10 0 10 -10v-78q0 -17 10 -26.5t26 -9.5q15 0 25.5 10.5t10.5 29.5v74q0 10 10 10
h16q10 0 10 -10v-71q0 -35 -20.5 -56t-51.5 -21q-34 0 -53 22q-19 -22 -55 -22q-31 0 -51.5 21t-20.5 56v71z" />
    <glyph glyph-name="aShadda_aDamma" unicode="&#xfc61;" horiz-adv-x="0" arabic-form="isolated" 
d="M45 1060q1 5 1 10v10q0 29 -11.5 43.5t-29.5 14.5q-20 0 -30.5 -14t-10.5 -28q0 -21 16.5 -28.5t28.5 -7.5h36zM-45 985q23 0 38 4.5t24.5 11.5t14.5 15t7 14h-35q-34 0 -53 17.5t-19 48.5t21 52.5t52 21.5t52.5 -21t21.5 -69q0 -36 -9.5 -60.5t-26 -39.5t-39 -21
t-49.5 -6h-28q-10 0 -10 10v12q0 10 10 10h28zM-127 896q0 10 10 10h16q10 0 10 -10v-74q0 -19 10 -29.5t26 -10.5t26 9.5t10 26.5v78q0 10 10 10h16q10 0 10 -10v-78q0 -17 10 -26.5t26 -9.5q15 0 25.5 10.5t10.5 29.5v74q0 10 10 10h16q10 0 10 -10v-71q0 -35 -20.5 -56
t-51.5 -21q-34 0 -53 22q-19 -22 -55 -22q-31 0 -51.5 21t-20.5 56v71z" />
    <glyph glyph-name="aShadda_aKasra" unicode="&#xfc62;" horiz-adv-x="0" arabic-form="isolated" 
d="M-128 753q-10 0 -10 10v11q0 10 10 10h254q10 0 10 -10v-11q0 -10 -10 -10h-254zM-127 978q0 10 10 10h16q10 0 10 -10v-74q0 -19 10 -29.5t26 -10.5t26 9.5t10 26.5v78q0 10 10 10h16q10 0 10 -10v-78q0 -17 10 -26.5t26 -9.5q15 0 25.5 10.5t10.5 29.5v74q0 10 10 10
h16q10 0 10 -10v-71q0 -35 -20.5 -56t-51.5 -21q-34 0 -53 22q-19 -22 -55 -22q-31 0 -51.5 21t-20.5 56v71z" />
    <glyph glyph-name="aShadda_aAlifabove" unicode="&#xfc63;" horiz-adv-x="0" arabic-form="isolated" 
d="M-127 896q0 10 10 10h16q10 0 10 -10v-74q0 -19 10 -29.5t26 -10.5t26 9.5t10 26.5v78q0 10 10 10h16q10 0 10 -10v-78q0 -17 10 -26.5t26 -9.5q15 0 25.5 10.5t10.5 29.5v74q0 10 10 10h16q10 0 10 -10v-71q0 -35 -20.5 -56t-51.5 -21q-34 0 -53 22q-19 -22 -55 -22
q-31 0 -51.5 21t-20.5 56v71zM17 950q0 -10 -10 -10h-15q-10 0 -10 10v124q0 10 10 10h15q10 0 10 -10v-124z" />
    <glyph glyph-name="aAllah" unicode="&#xfdf2;" horiz-adv-x="1265" arabic-form="isolated" 
d="M753 0q-42 0 -71.5 9.5t-43.5 43.5q-12 -24 -32 -38.5t-58 -14.5h-129q-18 0 -36 3.5t-32 12.5t-23 26t-9 44q-18 -18 -45 -28.5t-71 -10.5q-75 0 -119.5 43.5t-44.5 133.5q0 54 13.5 91.5t38 61t58 34t73.5 10.5h97v43q0 10 10 10h35q10 0 10 -10v-355q0 -30 11.5 -41.5
t36.5 -11.5h120q19 0 30 5t16 15.5t6.5 26.5t1.5 37v530q0 10 10 10h35q10 0 10 -10v-539q0 -38 25 -56.5t67 -18.5h83q25 0 38.5 12t13.5 41v561q0 10 10 10h35q10 0 10 -10v-544q0 -32 -5 -56t-18 -39.5t-35.5 -23t-58.5 -7.5h-63zM207 103q64 0 88 29t24 79v154h-107
q-54 0 -85.5 -31t-31.5 -110q0 -64 28.5 -92.5t83.5 -28.5zM1185 10q0 -10 -10 -10h-35q-10 0 -10 10v660q0 10 10 10h35q10 0 10 -10v-660z" />
    <glyph glyph-name="aAllahlong" unicode="&#xfdfa;" horiz-adv-x="1057" arabic-form="isolated" 
d="M1017 437q0 -14 -16 -39q-15 -24 -31 -31q-47 -21 -116 -21h-23t-25 2q-24 -47 -38 -47q-4 0 -4 6q0 16 22 47q-43 17 -48 26q-40 -26 -50 -26q8 -141 25 -176q19 -38 87 -39q-22 17 -22 44q0 33 32 76q24 32 61 32q28 0 53 -17q24 -17 24 -31q-26 9 -52 9q-35 0 -65 -14
q-26 -14 -26 -27q0 -14 25 -39q24 -25 44 -29q19 2 68 18q25 8 42 14t25 11l-17 -37q-101 -53 -191 -53q-97 0 -119 73q-30 -65 -57 -65q-26 0 -67 44q-65 -56 -197 -56q-20 0 -37.5 1.5t-32.5 3.5q4 -32 9 -52q9 -36 23 -50q44 -44 176 -44q113 0 165 32q15 37 28 37
q4 0 4 -8q0 -14 -12 -44q6 -13 27 -13q26 0 49 12q21 66 33 66q4 0 4 -11q0 -19 -10 -43q30 -13 44 -13q1 0 4.5 0.5t3.5 3.5q0 4 -8 38l17 36q12 -36 12 -52q0 -67 -44 -67q-23 0 -48 19q-15 -26 -59 -26q-48 0 -48 26q-20 -14 -64 -24q-53 -11 -121 -11q-97 0 -143 28
q-59 34 -60 126l-22 -32q-16 -24 -26 -26q12 -21 12 -41q0 -26 -16 -42q-8 -8 -21 -8q-20 0 -61 23q-13 -30 -42 -47q-3 -2 -9.5 -3t-13.5 -1.5t-13 -1t-9 -1.5l-11 -4q-6 0 -6 5q0 4 24 15q31 12 39 19l34 26q-10 17 -10 40q0 21 18 41q18 21 34 21q2 0 6 -2q17 -10 29 -10
q18 0 36 23l23 42q-39 12 -55 27q-29 26 -41 85q-29 -50 -79 -50q-18 0 -39 8q-16 7 -16 12q0 25 43 58q20 16 41.5 26.5t43.5 17.5l-2 17l20 33q7 -108 21 -141q13 -31 56 -45l-13 132l19 43l17 -180q52 -6 95 -6q104 0 177 40q14 38 19 38q4 0 4 -9q0 -10 -4 -25
q37 -35 59 -35q26 0 42 43l-13 161q-73 0 -90 74q-7 -28 -14 -42q-11 -26 -27 -30l3 -3q35 0 52 -8t17 -30q0 -30 -25 -46q-86 -59 -160 -59q-46 0 -74 23.5t-28 65.5q0 32 16 67q-27 7 -38 43q-18 -51 -57 -51q-47 0 -47 77l-27 -24q-7 -7 -39 -7q-49 0 -49 18q0 11 13 31
q13 22 25 27l76 37v10l17 36l4 -120q1 -42 32 -42q15 0 29.5 10.5t16.5 22.5l-16 114l18 39l28 -161q9 -21 33 -21q23 0 23 13q0 22 -16 74l-10 32t-10 33l13 33q40 -124 40 -157q0 -21 -10 -44q-10 -28 -25 -28q-5 0 -9 3q-7 -20 -7 -39q0 -75 91 -75q71 0 142 48q2 2 2 3
q0 6 -38 12q-59 9 -61 10q-4 3 -4 8q0 10 17 32q60 25 64 53q1 3 1 14q0 49 -5 106.5t-15 124.5l17 56q24 -211 38 -256q18 -57 72 -66l-5 96l21 45l8 -140q28 10 60 36l30 -21q19 -12 39 -15q23 24 65 55q52 38 70 38t41 -14q26 -15 26 -33zM1008 2q0 -50 -39 -108
q-42 -64 -89 -64q-23 0 -59 16q-37 16 -37 23q0 4 5 4q6 0 27 -7q8 -3 18.5 -5.5t18.5 -2.5q68 0 138 106l-7 22q-18 -26 -37 -26q-15 0 -25.5 14t-10.5 31q0 21 15 50q16 31 28 31t32 -24q22 -26 22 -60zM970 639q-36 -13 -116 -51q-96 -47 -96 -61q0 -11 26 -25l-9 -24
q-33 10 -33 40t26 44q128 74 211 102zM476 447q-3 -66 -13 -73l-25 242l22 57zM602 37l-26 -31l-48 35l-28 -36l-50 36l29 35l47 -35l27 33zM989 420q0 7 -18 16q-17 9 -26 9q-21 0 -60 -24q-30 -19 -47 -34q4 -1 20 -1q39 0 82 8q49 10 49 26zM632 -121q0 -20 -2 -30
q-6 -13 -25 -13q-10 0 -14 4q-15 -16 -30 -16q-8 0 -16.5 8.5t-12.5 8.5q-8 0 -37 -17q-29 -18 -70 -18q-44 0 -44 8q0 7 32 7q17 0 29 0.5t17 1.5q15 3 35 16q29 19 40 19q8 0 19 -8t13 -8q15 0 18 17q1 13 11 13q4 0 4 -6t-1 -9q1 -4 11 -6q12 0 12 12q0 16 11 16z
M815 705l-6 -22l-195 -96l4 25zM169 263q-88 -34 -88 -52q0 -10 31 -10q33 0 59 24zM324 665q0 -32 -21 -32q-13 0 -21 8q-18 -15 -30 -15q-21 0 -21 27q0 19 3 27l6 6q0 -37 17 -37q12 0 19 16l-2 23l9 14l4 -30q1 -16 15 -16q11 0 11 12q0 1 -0.5 4.5t-2.5 20.5l7 10
q7 -18 7 -38zM189 487q-10 -5 -20 -9t-21 -8q-34 -17 -34 -25q0 -10 25 -10q29 0 51 13zM214 -39q0 8 -7.5 18.5t-16.5 16.5q-19 14 -34 14q-14 0 -14 -12q0 -13 26 -27q24 -15 39 -15q7 0 7 5zM979 10q-6 32 -26 32q-16 0 -20 -25q4 -18 31 -18q13 0 15 11z" />
    <glyph glyph-name="aAlifMadda.fina" unicode="&#x622;" horiz-adv-x="231" arabic-form="final" 
d="M-62 777q5 18 13.5 28.5t18 16.5t20 7.5t19.5 1.5q23 0 48.5 -8t51 -17.5t50 -17.5t47.5 -8q17 0 24.5 7.5t7.5 26.5q0 10 10 10h19q10 0 10 -10q0 -23 -6.5 -37.5t-17 -22t-24 -10t-26.5 -2.5q-25 0 -51.5 8t-52.5 18t-50 18t-43 8q-10 0 -19 -5.5t-14 -22.5
q-3 -8 -11 -7l-18 7q-9 2 -6 11zM75 670q0 10 10 10h35q10 0 10 -10v-561q0 -30 13 -41.5t38 -11.5h50q40 0 40 -28q0 -20 -9.5 -24t-30.5 -4h-39q-63 0 -90 25.5t-27 83.5v561z" />
    <glyph glyph-name="aAlifHamza.fina" unicode="&#x623;" horiz-adv-x="231" arabic-form="final" 
d="M75 670q0 10 10 10h35q10 0 10 -10v-561q0 -30 13 -41.5t38 -11.5h50q40 0 40 -28q0 -20 -9.5 -24t-30.5 -4h-39q-63 0 -90 25.5t-27 83.5v561zM48 768q-8 13 -13.5 28t-5.5 38q0 13 4.5 29t15.5 30.5t30 24.5t48 10q23 0 44.5 -9.5t32.5 -26.5q3 -6 -2 -11l-15 -13
q-5 -5 -11 1q-9 10 -22.5 16t-30.5 6q-26 0 -40.5 -18t-14.5 -44q0 -19 9.5 -35.5t20.5 -25.5h105q6 0 6 -7v-24q0 -7 -6 -7h-193q-6 0 -6 7v24q0 7 6 7h38z" />
    <glyph glyph-name="aWawHamza.fina" unicode="&#x624;" horiz-adv-x="489" arabic-form="final" 
d="M145 -196q-10 0 -10 10v36q0 10 10 10h122q49 0 72.5 18t23.5 72v50h-113q-42 0 -76 10t-58.5 33t-37.5 61.5t-13 95.5q0 54 14 95.5t38.5 69t57 42t70.5 14.5q89 0 131.5 -53t42.5 -162v-150h70q20 0 30 -5t10 -20q0 -20 -9.5 -25.5t-30.5 -5.5h-70v-49
q0 -78 -32.5 -112.5t-102.5 -34.5h-139zM245 365q-55 0 -88.5 -42t-33.5 -125q0 -40 7.5 -67t23.5 -43.5t40 -24t56 -7.5h113v148q0 77 -27 119t-91 42zM169 529q-8 10 -14 24.5t-6 34.5q0 13 4.5 29t16.5 30.5t33 24t53 9.5q26 0 47 -10t33 -24q5 -6 -1 -12l-20 -18
q-2 -1 -7 4q-10 8 -24 15t-34 7q-34 0 -47.5 -18.5t-13.5 -37.5q0 -24 12 -38t23 -20h117q6 0 6 -7v-25q0 -7 -6 -7h-205q-6 0 -6 7v25q0 7 6 7h33z" />
    <glyph glyph-name="aAlifHamzabelow.fina" unicode="&#x625;" horiz-adv-x="231" arabic-form="final" 
d="M75 670q0 10 10 10h35q10 0 10 -10v-561q0 -30 13 -41.5t38 -11.5h50q40 0 40 -28q0 -20 -9.5 -24t-30.5 -4h-39q-63 0 -90 25.5t-27 83.5v561zM48 -230q-8 13 -13.5 28t-5.5 38q0 13 4.5 29t15.5 30.5t30 24.5t48 10q23 0 44.5 -9.5t32.5 -26.5q2 -4 1 -6.5t-3 -4.5
l-15 -13q-5 -5 -11 1q-9 10 -22.5 16t-30.5 6q-26 0 -40.5 -18t-14.5 -44q0 -19 9.5 -35.5t20.5 -25.5h105q6 0 6 -7v-24q0 -7 -6 -7h-193q-6 0 -6 7v24q0 7 6 7h38z" />
    <glyph glyph-name="aYehHamza.fina" unicode="&#x626;" horiz-adv-x="737" arabic-form="final" 
d="M122 352q-8 10 -14 24.5t-6 34.5q0 13 4.5 29t16.5 30.5t33 24t53 9.5q26 0 47 -10t33 -24q5 -6 -1 -12l-20 -18q-2 -1 -7 4q-10 8 -24 15t-34 7q-34 0 -47.5 -18.5t-13.5 -37.5q0 -24 12 -38t23 -20h117q6 0 6 -7v-25q0 -7 -6 -7h-205q-6 0 -6 7v25q0 7 6 7h33zM103 25
q0 -45 14 -76t37.5 -50.5t55 -28t67.5 -8.5h248q59 0 82 18.5t23 51.5q0 26 -14.5 43.5t-42.5 32.5t-68.5 29t-91.5 33q-9 3 -6 12l17 40q3 10 12 7q32 -12 62.5 -25t60.5 -23.5t58.5 -17.5t57.5 -7h62q20 0 30 -3t10 -20q0 -20 -9.5 -26.5t-30.5 -6.5h-74q5 -8 12.5 -28
t7.5 -43t-7.5 -45.5t-25 -40t-45.5 -28.5t-68 -11h-269q-104 0 -163 57t-59 158q0 63 20.5 115t44.5 86q4 6 14 0l31 -20q8 -5 3 -13q-20 -31 -38 -73.5t-18 -88.5z" />
    <glyph glyph-name="aYehHamza.init" unicode="&#x626;" horiz-adv-x="275" arabic-form="initial" 
d="M89 529q-8 10 -14 24.5t-6 34.5q0 13 4.5 29t16.5 30.5t33 24t53 9.5q26 0 47 -10t33 -24q5 -6 -1 -12l-20 -18q-2 -1 -7 4q-10 8 -24 15t-34 7q-34 0 -47.5 -18.5t-13.5 -37.5q0 -24 12 -38t23 -20h117q6 0 6 -7v-25q0 -7 -6 -7h-205q-6 0 -6 7v25q0 7 6 7h33zM9 0
q-20 0 -30 5t-10 22q0 19 9.5 24t30.5 5h73q25 0 38.5 12t13.5 41v284q0 10 10 10h35q10 0 10 -10v-267q0 -32 -5 -56t-18 -39.5t-35.5 -23t-58.5 -7.5h-63z" />
    <glyph glyph-name="aYehHamza.medi" unicode="&#x626;" horiz-adv-x="282" arabic-form="medial" 
d="M87 529q-8 10 -14 24.5t-6 34.5q0 13 4.5 29t16.5 30.5t33 24t53 9.5q26 0 47 -10t33 -24q5 -6 -1 -12l-20 -18q-2 -1 -7 4q-10 8 -24 15t-34 7q-34 0 -47.5 -18.5t-13.5 -37.5q0 -24 12 -38t23 -20h117q6 0 6 -7v-25q0 -7 -6 -7h-205q-6 0 -6 7v25q0 7 6 7h33zM189 131
q0 -38 26.5 -56.5t70.5 -18.5h6q20 0 30 -5.5t10 -21.5t-9 -22.5t-31 -6.5q-42 0 -72 9.5t-44 43.5q-12 -24 -32 -38.5t-58 -14.5h-77q-19 0 -29.5 5.5t-10.5 21.5q0 17 10 23t30 6h71q19 0 30 5t16 15.5t6.5 26.5t1.5 37v253q0 10 10 10h35q10 0 10 -10v-262z" />
    <glyph glyph-name="aAlif.fina" unicode="&#x627;" horiz-adv-x="231" arabic-form="final" 
d="M75 670q0 10 10 10h35q10 0 10 -10v-561q0 -30 13 -41.5t38 -11.5h50q40 0 40 -28q0 -20 -9.5 -24t-30.5 -4h-39q-63 0 -90 25.5t-27 83.5v561z" />
    <glyph glyph-name="aBeh.fina" unicode="&#x628;" horiz-adv-x="847" arabic-form="final" 
d="M744 126q0 -36 27.5 -53t69.5 -17h6q20 0 30 -5.5t10 -19.5q0 -23 -9.5 -27t-30.5 -4q-40 0 -68 11t-45 39q-20 -50 -94 -50h-477q-63 0 -90 25t-27 85v219q0 10 10 10h35q10 0 10 -10v-220q0 -29 11.5 -41t36.5 -12h491q26 0 37.5 11.5t11.5 41.5v284q0 10 10 10h35
q10 0 10 -10v-267zM364 -164q-10 0 -10 10v60q0 10 10 10h52q10 0 10 -10v-60q0 -10 -10 -10h-52z" />
    <glyph glyph-name="aBeh.init" unicode="&#x628;" horiz-adv-x="255" arabic-form="initial" 
d="M0 0q-20 0 -30 5t-10 22q0 19 9.5 24t30.5 5h73q25 0 38.5 12t13.5 41v284q0 10 10 10h35q10 0 10 -10v-267q0 -32 -5 -56t-18 -39.5t-35.5 -23t-58.5 -7.5h-63zM98 -160q-10 0 -10 10v60q0 10 10 10h52q10 0 10 -10v-60q0 -10 -10 -10h-52z" />
    <glyph glyph-name="aBeh.medi" unicode="&#x628;" horiz-adv-x="283" arabic-form="medial" 
d="M180 131q0 -38 26.5 -56.5t70.5 -18.5h6q20 0 30 -5.5t10 -21.5t-9 -22.5t-31 -6.5q-42 0 -72 9.5t-44 43.5q-12 -24 -32 -38.5t-58 -14.5h-77q-19 0 -29.5 5.5t-10.5 21.5q0 17 10 23t30 6h71q19 0 30 5t16 15.5t6.5 26.5t1.5 37v253q0 10 10 10h35q10 0 10 -10v-262z
M129 -160q-10 0 -10 10v60q0 10 10 10h52q10 0 10 -10v-60q0 -10 -10 -10h-52z" />
    <glyph glyph-name="aTehMarbuta.fina" unicode="&#x629;" horiz-adv-x="473" arabic-form="final" 
d="M319 421v43q0 10 10 10h35q10 0 10 -10v-355q0 -30 11.5 -41.5t36.5 -11.5h51q20 0 30 -6t10 -23q0 -20 -9.5 -23.5t-30.5 -3.5h-54q-18 0 -36 3.5t-32 12.5t-23 26t-9 44q-18 -18 -45 -28.5t-71 -10.5q-75 0 -119.5 43.5t-44.5 133.5q0 54 13.5 91.5t38 61t58 34
t73.5 10.5h97zM207 103q64 0 88 29t24 79v154h-107q-54 0 -85.5 -31t-31.5 -110q0 -64 28.5 -92.5t83.5 -28.5zM251 541q-10 0 -10 10v60q0 10 10 10h52q10 0 10 -10v-60q0 -10 -10 -10h-52zM123 541q-10 0 -10 10v60q0 10 10 10h52q10 0 10 -10v-60q0 -10 -10 -10h-52z" />
    <glyph glyph-name="aTeh.fina" unicode="&#x62a;" horiz-adv-x="847" arabic-form="final" 
d="M744 126q0 -36 27.5 -53t69.5 -17h6q20 0 30 -5.5t10 -19.5q0 -23 -9.5 -27t-30.5 -4q-40 0 -68 11t-45 39q-20 -50 -94 -50h-477q-63 0 -90 25t-27 85v219q0 10 10 10h35q10 0 10 -10v-220q0 -29 11.5 -41t36.5 -12h491q26 0 37.5 11.5t11.5 41.5v284q0 10 10 10h35
q10 0 10 -10v-267zM436 442q-10 0 -10 10v60q0 10 10 10h52q10 0 10 -10v-60q0 -10 -10 -10h-52zM308 442q-10 0 -10 10v60q0 10 10 10h52q10 0 10 -10v-60q0 -10 -10 -10h-52z" />
    <glyph glyph-name="aTeh.init" unicode="&#x62a;" horiz-adv-x="254" arabic-form="initial" 
d="M0 0q-20 0 -30 4t-10 20q0 20 9.5 26t30.5 6h72q25 0 36.5 11.5t11.5 41.5v284q0 10 10 10h36q10 0 10 -10v-267q0 -65 -27 -95.5t-90 -30.5h-59zM190 501q-10 0 -10 10v60q0 10 10 10h52q10 0 10 -10v-60q0 -10 -10 -10h-52zM62 501q-10 0 -10 10v60q0 10 10 10h52
q10 0 10 -10v-60q0 -10 -10 -10h-52z" />
    <glyph glyph-name="aTeh.medi" unicode="&#x62a;" horiz-adv-x="287" arabic-form="medial" 
d="M184 131q0 -38 26.5 -56.5t70.5 -18.5h6q20 0 30 -5.5t10 -21.5t-9 -22.5t-31 -6.5q-42 0 -72 9.5t-44 43.5q-12 -24 -32 -38.5t-58 -14.5h-81q-19 0 -27.5 5.5t-8.5 21.5q0 17 8 23t28 6h75q19 0 30 5t16 15.5t6.5 26.5t1.5 37v253q0 10 10 10h35q10 0 10 -10v-262z
M191 501q-10 0 -10 10v60q0 10 10 10h52q10 0 10 -10v-60q0 -10 -10 -10h-52zM63 501q-10 0 -10 10v60q0 10 10 10h52q10 0 10 -10v-60q0 -10 -10 -10h-52z" />
    <glyph glyph-name="aTheh.fina" unicode="&#x62b;" horiz-adv-x="847" arabic-form="final" 
d="M744 126q0 -36 27.5 -53t69.5 -17h6q20 0 30 -5.5t10 -19.5q0 -23 -9.5 -27t-30.5 -4q-40 0 -68 11t-45 39q-20 -50 -94 -50h-477q-63 0 -90 25t-27 85v219q0 10 10 10h35q10 0 10 -10v-220q0 -29 11.5 -41t36.5 -12h491q26 0 37.5 11.5t11.5 41.5v284q0 10 10 10h35
q10 0 10 -10v-267zM370 570q-10 0 -10 10v60q0 10 10 10h52q10 0 10 -10v-60q0 -10 -10 -10h-52zM435 442q-10 0 -10 10v60q0 10 10 10h52q10 0 10 -10v-60q0 -10 -10 -10h-52zM307 442q-10 0 -10 10v60q0 10 10 10h52q10 0 10 -10v-60q0 -10 -10 -10h-52z" />
    <glyph glyph-name="aTheh.init" unicode="&#x62b;" horiz-adv-x="254" arabic-form="initial" 
d="M0 0q-20 0 -30 4t-10 20q0 20 9.5 26t30.5 6h72q25 0 36.5 11.5t11.5 41.5v284q0 10 10 10h36q10 0 10 -10v-267q0 -65 -27 -95.5t-90 -30.5h-59zM122 629q-10 0 -10 10v60q0 10 10 10h52q10 0 10 -10v-60q0 -10 -10 -10h-52zM187 501q-10 0 -10 10v60q0 10 10 10h52
q10 0 10 -10v-60q0 -10 -10 -10h-52zM59 501q-10 0 -10 10v60q0 10 10 10h52q10 0 10 -10v-60q0 -10 -10 -10h-52z" />
    <glyph glyph-name="aTheh.medi" unicode="&#x62b;" horiz-adv-x="287" arabic-form="medial" 
d="M184 131q0 -38 26.5 -56.5t70.5 -18.5h6q20 0 30 -5.5t10 -21.5t-9 -22.5t-31 -6.5q-42 0 -72 9.5t-44 43.5q-12 -24 -32 -38.5t-58 -14.5h-81q-19 0 -27.5 5.5t-8.5 21.5q0 17 8 23t28 6h75q19 0 30 5t16 15.5t6.5 26.5t1.5 37v253q0 10 10 10h35q10 0 10 -10v-262z
M127 629q-10 0 -10 10v60q0 10 10 10h52q10 0 10 -10v-60q0 -10 -10 -10h-52zM192 501q-10 0 -10 10v60q0 10 10 10h52q10 0 10 -10v-60q0 -10 -10 -10h-52zM64 501q-10 0 -10 10v60q0 10 10 10h52q10 0 10 -10v-60q0 -10 -10 -10h-52z" />
    <glyph glyph-name="aJim.fina" unicode="&#x62c;" horiz-adv-x="596" arabic-form="final" 
d="M155 0q-38 0 -51.5 -21t-13.5 -48q0 -36 18 -53.5t63 -17.5h65q10 0 10 -10v-36q0 -10 -10 -10h-59q-145 0 -145 123q0 38 11 63t28.5 39.5t38 20.5t38.5 6h196q30 0 47.5 5t27 17.5t12 32.5t2.5 50q0 47 -7.5 84.5t-25.5 63.5t-47 40t-72 14q-35 0 -67 -12.5t-58 -43.5
q-6 -9 -14 -2l-27 24q-9 5 -3 14q26 33 66.5 55.5t103.5 22.5q65 0 106.5 -22t64.5 -57.5t32 -80.5t9 -92v-46q0 -34 23.5 -50.5t61.5 -16.5h16q20 0 30 -5.5t10 -22.5q0 -18 -9.5 -23t-30.5 -5q-42 0 -73 10.5t-45 45.5q-15 -30 -42.5 -43t-72.5 -13h-207zM298 -169
q-10 0 -10 10v60q0 10 10 10h52q10 0 10 -10v-60q0 -10 -10 -10h-52z" />
    <glyph glyph-name="aJim.init" unicode="&#x62c;" horiz-adv-x="511" arabic-form="initial" 
d="M0 0q-40 0 -40 26q0 21 9.5 25.5t30.5 4.5h302q30 0 47.5 5t27 17.5t12 32.5t2.5 50q0 47 -7.5 84.5t-25.5 63.5t-47 40t-72 14q-35 0 -67 -12.5t-58 -43.5q-6 -9 -14 -2l-27 24q-9 5 -3 14q26 33 66.5 55.5t103.5 22.5q66 0 107.5 -22.5t64.5 -58.5t31.5 -82t8.5 -93
q0 -45 -6 -76.5t-21 -51t-40.5 -28.5t-64.5 -9h-320zM227 -162q-10 0 -10 10v60q0 10 10 10h52q10 0 10 -10v-60q0 -10 -10 -10h-52z" />
    <glyph glyph-name="aJim.medi" unicode="&#x62c;" horiz-adv-x="553" arabic-form="medial" 
d="M452 123q0 -34 23.5 -50.5t61.5 -16.5h16q20 0 30 -5.5t10 -22.5q0 -18 -9.5 -23t-30.5 -5q-42 0 -73 10.5t-45 45.5q-15 -30 -42.5 -43t-72.5 -13h-320q-40 0 -40 26q0 21 9.5 25.5t30.5 4.5h302q30 0 47.5 5t27 17.5t12 32.5t2.5 50q0 47 -7.5 84.5t-25.5 63.5t-47 40
t-72 14q-35 0 -67 -12.5t-58 -43.5q-6 -9 -14 -2l-27 24q-9 5 -3 14q26 33 66.5 55.5t103.5 22.5q65 0 106.5 -22t64.5 -57.5t32 -80.5t9 -92v-46zM226 -162q-10 0 -10 10v60q0 10 10 10h52q10 0 10 -10v-60q0 -10 -10 -10h-52z" />
    <glyph glyph-name="aHah.fina" unicode="&#x62d;" horiz-adv-x="586" arabic-form="final" 
d="M155 0q-38 0 -51.5 -21t-13.5 -48q0 -36 18 -53.5t63 -17.5h116q10 0 10 -10v-36q0 -10 -10 -10h-110q-145 0 -145 123q0 38 11 63t28.5 39.5t38 20.5t38.5 6h187q30 0 47.5 5t27 17.5t12 32.5t2.5 50q0 47 -7.5 84.5t-25.5 63.5t-47 40t-72 14q-35 0 -67 -12.5
t-58 -43.5q-6 -9 -14 -2l-27 24q-9 5 -3 14q26 33 66.5 55.5t103.5 22.5q65 0 106.5 -22t64.5 -57.5t32 -80.5t9 -92v-46q0 -34 23.5 -50.5t61.5 -16.5h16q20 0 30 -5.5t10 -22.5q0 -18 -9.5 -23t-30.5 -5q-42 0 -73 10.5t-45 45.5q-15 -30 -42.5 -43t-72.5 -13h-198z" />
    <glyph glyph-name="aHah.init" unicode="&#x62d;" horiz-adv-x="511" arabic-form="initial" 
d="M0 0q-40 0 -40 26q0 21 9.5 25.5t30.5 4.5h302q30 0 47.5 5t27 17.5t12 32.5t2.5 50q0 47 -7.5 84.5t-25.5 63.5t-47 40t-72 14q-35 0 -67 -12.5t-58 -43.5q-6 -9 -14 -2l-27 24q-9 5 -3 14q26 33 66.5 55.5t103.5 22.5q66 0 107.5 -22.5t64.5 -58.5t31.5 -82t8.5 -93
q0 -45 -6 -76.5t-21 -51t-40.5 -28.5t-64.5 -9h-320z" />
    <glyph glyph-name="aHah.medi" unicode="&#x62d;" horiz-adv-x="553" arabic-form="medial" 
d="M452 123q0 -34 23.5 -50.5t61.5 -16.5h16q20 0 30 -5.5t10 -22.5q0 -18 -9.5 -23t-30.5 -5q-42 0 -73 10.5t-45 45.5q-15 -30 -42.5 -43t-72.5 -13h-320q-40 0 -40 26q0 21 9.5 25.5t30.5 4.5h302q30 0 47.5 5t27 17.5t12 32.5t2.5 50q0 47 -7.5 84.5t-25.5 63.5t-47 40
t-72 14q-35 0 -67 -12.5t-58 -43.5q-6 -9 -14 -2l-27 24q-9 5 -3 14q26 33 66.5 55.5t103.5 22.5q65 0 106.5 -22t64.5 -57.5t32 -80.5t9 -92v-46z" />
    <glyph glyph-name="aKhah.fina" unicode="&#x62e;" horiz-adv-x="586" arabic-form="final" 
d="M155 0q-38 0 -51.5 -21t-13.5 -48q0 -36 18 -53.5t63 -17.5h116q10 0 10 -10v-36q0 -10 -10 -10h-110q-145 0 -145 123q0 38 11 63t28.5 39.5t38 20.5t38.5 6h187q30 0 47.5 5t27 17.5t12 32.5t2.5 50q0 47 -7.5 84.5t-25.5 63.5t-47 40t-72 14q-35 0 -67 -12.5
t-58 -43.5q-6 -9 -14 -2l-27 24q-9 5 -3 14q26 33 66.5 55.5t103.5 22.5q65 0 106.5 -22t64.5 -57.5t32 -80.5t9 -92v-46q0 -34 23.5 -50.5t61.5 -16.5h16q20 0 30 -5.5t10 -22.5q0 -18 -9.5 -23t-30.5 -5q-42 0 -73 10.5t-45 45.5q-15 -30 -42.5 -43t-72.5 -13h-198z
M251 501q-10 0 -10 10v60q0 10 10 10h40q10 0 10 -10v-60q0 -10 -10 -10h-40z" />
    <glyph glyph-name="aKhah.init" unicode="&#x62e;" horiz-adv-x="511" arabic-form="initial" 
d="M226 500q-10 0 -10 10v60q0 10 10 10h40q10 0 10 -10v-60q0 -10 -10 -10h-40zM0 0q-40 0 -40 26q0 21 9.5 25.5t30.5 4.5h302q30 0 47.5 5t27 17.5t12 32.5t2.5 50q0 47 -7.5 84.5t-25.5 63.5t-47 40t-72 14q-35 0 -67 -12.5t-58 -43.5q-6 -9 -14 -2l-27 24q-9 5 -3 14
q26 33 66.5 55.5t103.5 22.5q66 0 107.5 -22.5t64.5 -58.5t31.5 -82t8.5 -93q0 -45 -6 -76.5t-21 -51t-40.5 -28.5t-64.5 -9h-320z" />
    <glyph glyph-name="aKhah.medi" unicode="&#x62e;" horiz-adv-x="553" arabic-form="medial" 
d="M452 123q0 -34 23.5 -50.5t61.5 -16.5h16q20 0 30 -5.5t10 -22.5q0 -18 -9.5 -23t-30.5 -5q-42 0 -73 10.5t-45 45.5q-15 -30 -42.5 -43t-72.5 -13h-320q-40 0 -40 26q0 21 9.5 25.5t30.5 4.5h302q30 0 47.5 5t27 17.5t12 32.5t2.5 50q0 47 -7.5 84.5t-25.5 63.5t-47 40
t-72 14q-35 0 -67 -12.5t-58 -43.5q-6 -9 -14 -2l-27 24q-9 5 -3 14q26 33 66.5 55.5t103.5 22.5q65 0 106.5 -22t64.5 -57.5t32 -80.5t9 -92v-46zM226 500q-10 0 -10 10v60q0 10 10 10h40q10 0 10 -10v-60q0 -10 -10 -10h-40z" />
    <glyph glyph-name="aDal.fina" unicode="&#x62f;" horiz-adv-x="529" arabic-form="final" 
d="M426 132q0 -38 26.5 -57t70.5 -19h6q20 0 30 -6t10 -23t-9.5 -22t-30.5 -5q-42 0 -75 11t-45 47q-14 -32 -42 -45t-73 -13h-220q-10 0 -10 10v36q0 10 10 10h200q30 0 48.5 5t28 16.5t12.5 31t3 48.5v97q0 56 -30 83.5t-96 27.5h-117q-10 0 -10 10v36q0 10 10 10h134
q38 0 69.5 -10t53.5 -30.5t34 -52.5t12 -77v-119z" />
    <glyph glyph-name="aDhal.fina" unicode="&#x630;" horiz-adv-x="529" arabic-form="final" 
d="M426 132q0 -38 26.5 -57t70.5 -19h6q20 0 30 -6t10 -23t-9.5 -22t-30.5 -5q-42 0 -75 11t-45 47q-14 -32 -42 -45t-73 -13h-220q-10 0 -10 10v36q0 10 10 10h200q30 0 48.5 5t28 16.5t12.5 31t3 48.5v97q0 56 -30 83.5t-96 27.5h-117q-10 0 -10 10v36q0 10 10 10h134
q38 0 69.5 -10t53.5 -30.5t34 -52.5t12 -77v-119zM180 501q-10 0 -10 10v60q0 10 10 10h40q10 0 10 -10v-60q0 -10 -10 -10h-40z" />
    <glyph glyph-name="aReh.fina" unicode="&#x631;" horiz-adv-x="273" arabic-form="final" 
d="M171 131q0 -38 26.5 -56.5t70.5 -18.5h5q20 0 30 -5.5t10 -19.5q0 -23 -9.5 -27t-30.5 -4q-33 0 -58 5t-44 26v-80q0 -71 -35 -109t-110 -38h-17q-10 0 -10 10v36q0 10 10 10h23q41 0 62.5 21t21.5 64v448q0 10 10 10h35q10 0 10 -10v-262z" />
    <glyph glyph-name="aZeh.fina" unicode="&#x632;" horiz-adv-x="273" arabic-form="final" 
d="M171 131q0 -38 26.5 -56.5t70.5 -18.5h5q20 0 30 -5.5t10 -19.5q0 -23 -9.5 -27t-30.5 -4q-33 0 -58 5t-44 26v-80q0 -71 -35 -109t-110 -38h-17q-10 0 -10 10v36q0 10 10 10h23q41 0 62.5 21t21.5 64v448q0 10 10 10h35q10 0 10 -10v-262zM123 501q-10 0 -10 10v60
q0 10 10 10h40q10 0 10 -10v-60q0 -10 -10 -10h-40z" />
    <glyph glyph-name="aSin.fina" unicode="&#x633;" horiz-adv-x="1080" arabic-form="final" 
d="M51 18q0 63 20.5 115t44.5 86q4 6 14 0l31 -20q8 -5 3 -13q-20 -31 -38 -73.5t-18 -88.5q0 -47 17 -77.5t43 -48t56.5 -24.5t58.5 -7q35 0 65.5 8t52.5 26t34.5 46.5t12.5 69.5v283q0 10 10 10h36q10 0 10 -10v-170q0 -36 27 -55t72 -19q28 0 44.5 3t25 12.5t10.5 26.5
t2 45v157q0 10 10 10h36q10 0 10 -10v-175q0 -34 28 -51.5t74 -17.5q28 0 44 3.5t23.5 13.5t9.5 26.5t2 43.5v250q0 10 10 10h36q10 0 10 -10v-262q0 -38 26.5 -56.5t70.5 -18.5h5q20 0 30 -6t10 -23t-9.5 -22t-30.5 -5q-41 0 -70 10t-45 43q-12 -26 -33.5 -39.5
t-63.5 -13.5h-46q-28 0 -55 12.5t-40 38.5q-12 -24 -34 -37.5t-62 -13.5h-46q-22 0 -44.5 8t-37.5 24v-13q0 -46 -13.5 -84.5t-41 -66.5t-70.5 -44t-101 -16q-54 0 -96.5 15t-71 42.5t-43.5 66.5t-15 86z" />
    <glyph glyph-name="aSin.init" unicode="&#x633;" horiz-adv-x="753" arabic-form="initial" 
d="M685 131q0 -42 -9 -67.5t-24.5 -39.5t-36.5 -19t-45 -5h-41q-28 0 -55 12.5t-40 38.5q-12 -24 -34 -37.5t-62 -13.5h-46q-28 0 -55 12.5t-40 38.5q-12 -24 -33.5 -37.5t-63.5 -13.5h-107q-15 0 -24 6t-9 18q0 20 9.5 26t30.5 6h103q19 0 29.5 5.5t15.5 16t6 27t1 38.5
v157q0 10 10 10h36q10 0 10 -10v-170q0 -36 27 -55t72 -19q28 0 44.5 3t25 12.5t10.5 26.5t2 45v157q0 10 10 10h36q10 0 10 -10v-175q0 -34 28 -51.5t74 -17.5q28 0 44 3.5t23.5 13.5t9.5 26.5t2 43.5v250q0 10 10 10h36q10 0 10 -10v-262z" />
    <glyph glyph-name="aSin.medi" unicode="&#x633;" horiz-adv-x="787" arabic-form="medial" 
d="M211 130q0 -36 27 -55t72 -19q28 0 44.5 3t25 12.5t10.5 26.5t2 45v157q0 10 10 10h36q10 0 10 -10v-175q0 -34 28 -51.5t74 -17.5q28 0 44 3.5t23.5 13.5t9.5 26.5t2 43.5v250q0 10 10 10h36q10 0 10 -10v-262q0 -38 26.5 -56.5t70.5 -18.5h5q20 0 30 -6t10 -23
t-9.5 -22t-30.5 -5q-41 0 -70 10t-45 43q-12 -26 -33.5 -39.5t-63.5 -13.5h-46q-28 0 -55 12.5t-40 38.5q-12 -24 -34 -37.5t-62 -13.5h-46q-28 0 -55 12.5t-40 38.5q-12 -24 -33.5 -37.5t-63.5 -13.5h-107q-15 0 -24 6t-9 18q0 20 9.5 26t30.5 6h103q19 0 29.5 5.5t15.5 16
t6 27t1 38.5v157q0 10 10 10h36q10 0 10 -10v-170z" />
    <glyph glyph-name="aShin.fina" unicode="&#x634;" horiz-adv-x="1080" arabic-form="final" 
d="M51 18q0 63 20.5 115t44.5 86q4 6 14 0l31 -20q8 -5 3 -13q-20 -31 -38 -73.5t-18 -88.5q0 -47 17 -77.5t43 -48t56.5 -24.5t58.5 -7q35 0 65.5 8t52.5 26t34.5 46.5t12.5 69.5v283q0 10 10 10h36q10 0 10 -10v-170q0 -36 27 -55t72 -19q28 0 44.5 3t25 12.5t10.5 26.5
t2 45v157q0 10 10 10h36q10 0 10 -10v-175q0 -34 28 -51.5t74 -17.5q28 0 44 3.5t23.5 13.5t9.5 26.5t2 43.5v250q0 10 10 10h36q10 0 10 -10v-262q0 -38 26.5 -56.5t70.5 -18.5h5q20 0 30 -6t10 -23t-9.5 -22t-30.5 -5q-41 0 -70 10t-45 43q-12 -26 -33.5 -39.5
t-63.5 -13.5h-46q-28 0 -55 12.5t-40 38.5q-12 -24 -34 -37.5t-62 -13.5h-46q-22 0 -44.5 8t-37.5 24v-13q0 -46 -13.5 -84.5t-41 -66.5t-70.5 -44t-101 -16q-54 0 -96.5 15t-71 42.5t-43.5 66.5t-15 86zM684 629q-10 0 -10 10v60q0 10 10 10h52q10 0 10 -10v-60
q0 -10 -10 -10h-52zM749 501q-10 0 -10 10v60q0 10 10 10h52q10 0 10 -10v-60q0 -10 -10 -10h-52zM621 501q-10 0 -10 10v60q0 10 10 10h52q10 0 10 -10v-60q0 -10 -10 -10h-52z" />
    <glyph glyph-name="aShin.init" unicode="&#x634;" horiz-adv-x="753" arabic-form="initial" 
d="M685 131q0 -42 -9 -67.5t-24.5 -39.5t-36.5 -19t-45 -5h-41q-28 0 -55 12.5t-40 38.5q-12 -24 -34 -37.5t-62 -13.5h-46q-28 0 -55 12.5t-40 38.5q-12 -24 -33.5 -37.5t-63.5 -13.5h-107q-15 0 -24 6t-9 18q0 20 9.5 26t30.5 6h103q19 0 29.5 5.5t15.5 16t6 27t1 38.5
v157q0 10 10 10h36q10 0 10 -10v-170q0 -36 27 -55t72 -19q28 0 44.5 3t25 12.5t10.5 26.5t2 45v157q0 10 10 10h36q10 0 10 -10v-175q0 -34 28 -51.5t74 -17.5q28 0 44 3.5t23.5 13.5t9.5 26.5t2 43.5v250q0 10 10 10h36q10 0 10 -10v-262zM392 629q-10 0 -10 10v60
q0 10 10 10h52q10 0 10 -10v-60q0 -10 -10 -10h-52zM457 501q-10 0 -10 10v60q0 10 10 10h52q10 0 10 -10v-60q0 -10 -10 -10h-52zM329 501q-10 0 -10 10v60q0 10 10 10h52q10 0 10 -10v-60q0 -10 -10 -10h-52z" />
    <glyph glyph-name="aShin.medi" unicode="&#x634;" horiz-adv-x="787" arabic-form="medial" 
d="M211 130q0 -36 27 -55t72 -19q28 0 44.5 3t25 12.5t10.5 26.5t2 45v157q0 10 10 10h36q10 0 10 -10v-175q0 -34 28 -51.5t74 -17.5q28 0 44 3.5t23.5 13.5t9.5 26.5t2 43.5v250q0 10 10 10h36q10 0 10 -10v-262q0 -38 26.5 -56.5t70.5 -18.5h5q20 0 30 -6t10 -23
t-9.5 -22t-30.5 -5q-41 0 -70 10t-45 43q-12 -26 -33.5 -39.5t-63.5 -13.5h-46q-28 0 -55 12.5t-40 38.5q-12 -24 -34 -37.5t-62 -13.5h-46q-28 0 -55 12.5t-40 38.5q-12 -24 -33.5 -37.5t-63.5 -13.5h-107q-15 0 -24 6t-9 18q0 20 9.5 26t30.5 6h103q19 0 29.5 5.5t15.5 16
t6 27t1 38.5v157q0 10 10 10h36q10 0 10 -10v-170zM392 629q-10 0 -10 10v60q0 10 10 10h52q10 0 10 -10v-60q0 -10 -10 -10h-52zM457 501q-10 0 -10 10v60q0 10 10 10h52q10 0 10 -10v-60q0 -10 -10 -10h-52zM329 501q-10 0 -10 10v60q0 10 10 10h52q10 0 10 -10v-60
q0 -10 -10 -10h-52z" />
    <glyph glyph-name="aSad.fina" unicode="&#x635;" horiz-adv-x="1080" arabic-form="final" 
d="M918 187q0 41 -8 74t-27.5 56t-52.5 35.5t-82 12.5q-33 0 -66.5 -6.5t-65.5 -17t-61 -23t-53 -24.5v-238h300q32 0 54 3.5t36 17t20 39.5t6 71zM501 0q-3 -41 -18 -76.5t-42.5 -61t-68.5 -40t-96 -14.5q-54 0 -96.5 15t-71 42.5t-43.5 66.5t-15 86q0 63 20.5 115t44.5 86
q4 6 14 0l31 -20q8 -5 3 -13q-20 -31 -38 -73.5t-18 -88.5q0 -47 17 -77.5t43 -48t56.5 -24.5t58.5 -7q34 0 64.5 8t52.5 26t35 46.5t13 69.5v373q0 10 10 10h35q10 0 10 -10v-37q51 28 113.5 48t128.5 20q75 0 120.5 -21.5t71 -55.5t34 -76t8.5 -82q0 -16 -0.5 -30
t-0.5 -25q0 -38 26.5 -56.5t70.5 -18.5h5q20 0 30 -4.5t10 -22.5q0 -19 -9.5 -24t-30.5 -5q-43 0 -76.5 12t-44.5 49q-10 -21 -26 -33.5t-38.5 -18.5t-52 -7.5t-65.5 -1.5h-275z" />
    <glyph glyph-name="aSad.init" unicode="&#x635;" horiz-adv-x="716" arabic-form="initial" 
d="M481 56q32 0 54 3.5t36 17t20 39.5t6 71q0 41 -8 74t-27.5 56t-52.5 35.5t-82 12.5q-33 0 -66.5 -6.5t-65.5 -16.5t-61 -23t-53 -25v-185q0 -31 -6 -53h306zM181 353q51 28 113.5 48t128.5 20q75 0 120.5 -21.5t71 -55.5t34 -76t8.5 -82q0 -65 -11.5 -102.5t-35.5 -56
t-62.5 -23t-92.5 -4.5h-262q-15 0 -32 3t-26 9q-14 -8 -33.5 -10t-39.5 -2h-62q-20 0 -30 6t-10 21q0 17 9.5 23t30.5 6h74q36 0 44 20t8 65v248q0 10 10 10h35q10 0 10 -10v-36z" />
    <glyph glyph-name="aSad.medi" unicode="&#x635;" horiz-adv-x="758" arabic-form="medial" 
d="M481 56q32 0 54 3.5t36 17t20 39.5t6 71q0 41 -8 74t-27.5 56t-52.5 35.5t-82 12.5q-33 0 -66.5 -6.5t-65.5 -16.5t-61 -23t-53 -25v-185q0 -31 -6 -53h306zM657 186q0 -16 -0.5 -30t-0.5 -25q0 -38 26.5 -56.5t70.5 -18.5h5q20 0 30 -4.5t10 -22.5q0 -19 -9.5 -24
t-30.5 -5q-43 0 -76.5 12t-44.5 49q-10 -21 -26 -33.5t-38.5 -18.5t-52 -7.5t-65.5 -1.5h-262q-15 0 -32 3t-26 9q-14 -8 -33.5 -10t-39.5 -2h-62q-20 0 -30 6t-10 21q0 17 9.5 23t30.5 6h74q36 0 44 20t8 65v248q0 10 10 10h35q10 0 10 -10v-36q51 28 113.5 48t128.5 20
q118 0 176 -60t58 -175z" />
    <glyph glyph-name="aDad.fina" unicode="&#x636;" horiz-adv-x="1080" arabic-form="final" 
d="M918 187q0 41 -8 74t-27.5 56t-52.5 35.5t-82 12.5q-33 0 -66.5 -6.5t-65.5 -17t-61 -23t-53 -24.5v-238h300q32 0 54 3.5t36 17t20 39.5t6 71zM501 0q-3 -41 -18 -76.5t-42.5 -61t-68.5 -40t-96 -14.5q-54 0 -96.5 15t-71 42.5t-43.5 66.5t-15 86q0 63 20.5 115t44.5 86
q4 6 14 0l31 -20q8 -5 3 -13q-20 -31 -38 -73.5t-18 -88.5q0 -47 17 -77.5t43 -48t56.5 -24.5t58.5 -7q34 0 64.5 8t52.5 26t35 46.5t13 69.5v373q0 10 10 10h35q10 0 10 -10v-37q51 28 113.5 48t128.5 20q75 0 120.5 -21.5t71 -55.5t34 -76t8.5 -82q0 -16 -0.5 -30
t-0.5 -25q0 -38 26.5 -56.5t70.5 -18.5h5q20 0 30 -4.5t10 -22.5q0 -19 -9.5 -24t-30.5 -5q-43 0 -76.5 12t-44.5 49q-10 -21 -26 -33.5t-38.5 -18.5t-52 -7.5t-65.5 -1.5h-275zM730 501q-10 0 -10 10v60q0 10 10 10h40q10 0 10 -10v-60q0 -10 -10 -10h-40z" />
    <glyph glyph-name="aDad.init" unicode="&#x636;" horiz-adv-x="716" arabic-form="initial" 
d="M481 56q32 0 54 3.5t36 17t20 39.5t6 71q0 41 -8 74t-27.5 56t-52.5 35.5t-82 12.5q-33 0 -66.5 -6.5t-65.5 -16.5t-61 -23t-53 -25v-185q0 -31 -6 -53h306zM181 353q51 28 113.5 48t128.5 20q75 0 120.5 -21.5t71 -55.5t34 -76t8.5 -82q0 -65 -11.5 -102.5t-35.5 -56
t-62.5 -23t-92.5 -4.5h-262q-15 0 -32 3t-26 9q-14 -8 -33.5 -10t-39.5 -2h-62q-20 0 -30 6t-10 21q0 17 9.5 23t30.5 6h74q36 0 44 20t8 65v248q0 10 10 10h35q10 0 10 -10v-36zM410 501q-10 0 -10 10v60q0 10 10 10h40q10 0 10 -10v-60q0 -10 -10 -10h-40z" />
    <glyph glyph-name="aDad.medi" unicode="&#x636;" horiz-adv-x="758" arabic-form="medial" 
d="M481 56q32 0 54 3.5t36 17t20 39.5t6 71q0 41 -8 74t-27.5 56t-52.5 35.5t-82 12.5q-33 0 -66.5 -6.5t-65.5 -16.5t-61 -23t-53 -25v-185q0 -31 -6 -53h306zM657 186q0 -16 -0.5 -30t-0.5 -25q0 -38 26.5 -56.5t70.5 -18.5h5q20 0 30 -4.5t10 -22.5q0 -19 -9.5 -24
t-30.5 -5q-43 0 -76.5 12t-44.5 49q-10 -21 -26 -33.5t-38.5 -18.5t-52 -7.5t-65.5 -1.5h-262q-15 0 -32 3t-26 9q-14 -8 -33.5 -10t-39.5 -2h-62q-20 0 -30 6t-10 21q0 17 9.5 23t30.5 6h74q36 0 44 20t8 65v248q0 10 10 10h35q10 0 10 -10v-36q51 28 113.5 48t128.5 20
q118 0 176 -60t58 -175zM410 501q-10 0 -10 10v60q0 10 10 10h40q10 0 10 -10v-60q0 -10 -10 -10h-40z" />
    <glyph glyph-name="aTah.fina" unicode="&#x637;" horiz-adv-x="766" arabic-form="final" 
d="M41 0q-10 0 -10 10v36q0 10 10 10h32q17 0 28.5 3.5t18 13.5t9 26.5t2.5 42.5v528q0 10 10 10h36q10 0 10 -10v-317q51 28 113 48t128 20q75 0 121 -21.5t71.5 -55.5t34 -76t8.5 -82q0 -16 -0.5 -30t-0.5 -25q0 -38 26.5 -56.5t70.5 -18.5h5q20 0 30 -5.5t10 -19.5
q0 -23 -9.5 -27t-30.5 -4q-43 0 -77 12t-44 49q-11 -21 -27.5 -33.5t-38.5 -18.5t-51 -7.5t-65 -1.5h-298q-8 0 -17 2t-15 7q-10 -5 -22 -7t-31 -2h-37zM487 56q32 0 54 3.5t35.5 17t19.5 39.5t6 71q0 41 -8 74t-27.5 56t-52 35.5t-81.5 12.5q-33 0 -67 -6.5t-66 -16.5
t-61 -23t-52 -25v-175q0 -15 -3 -33.5t-8 -29.5h311z" />
    <glyph glyph-name="aTah.init" unicode="&#x637;" horiz-adv-x="710" arabic-form="initial" 
d="M61 56q17 0 28.5 3.5t18 13.5t9 26.5t2.5 42.5v528q0 10 10 10h36q10 0 10 -10v-317q51 28 113 48t128 20q75 0 121 -21.5t71.5 -55.5t34 -76t8.5 -82q0 -65 -11.5 -102t-35.5 -56t-62.5 -23.5t-92.5 -4.5h-298q-8 0 -17 2t-15 7q-10 -5 -22 -7t-31 -2h-66q-20 0 -30 5
t-10 23q0 28 40 28h61zM475 56q32 0 54 3.5t35.5 17t19.5 39.5t6 71q0 41 -8 74t-27.5 56t-52 35.5t-81.5 12.5q-33 0 -67 -6.5t-66 -16.5t-61 -23t-52 -25v-175q0 -15 -3 -33.5t-8 -29.5h311z" />
    <glyph glyph-name="aTah.medi" unicode="&#x637;" horiz-adv-x="752" arabic-form="medial" 
d="M631 61q-11 -21 -27.5 -33.5t-38.5 -18.5t-51 -7.5t-65 -1.5h-298q-8 0 -17 2t-15 7q-10 -5 -22 -7t-31 -2h-66q-20 0 -30 5t-10 23q0 28 40 28h61q17 0 28.5 3.5t18 13.5t9 26.5t2.5 42.5v528q0 10 10 10h36q10 0 10 -10v-317q51 28 113 48t128 20q75 0 121 -21.5
t71.5 -55.5t34 -76t8.5 -82q0 -16 -0.5 -30t-0.5 -25q0 -38 26.5 -56.5t70.5 -18.5h5q20 0 30 -5.5t10 -19.5q0 -23 -9.5 -27t-30.5 -4q-43 0 -77 12t-44 49zM475 56q32 0 54 3.5t35.5 17t19.5 39.5t6 71q0 41 -8 74t-27.5 56t-52 35.5t-81.5 12.5q-33 0 -67 -6.5t-66 -16.5
t-61 -23t-52 -25v-175q0 -15 -3 -33.5t-8 -29.5h311z" />
    <glyph glyph-name="aZah.fina" unicode="&#x638;" horiz-adv-x="766" arabic-form="final" 
d="M41 0q-10 0 -10 10v36q0 10 10 10h32q17 0 28.5 3.5t18 13.5t9 26.5t2.5 42.5v528q0 10 10 10h36q10 0 10 -10v-317q51 28 113 48t128 20q75 0 121 -21.5t71.5 -55.5t34 -76t8.5 -82q0 -16 -0.5 -30t-0.5 -25q0 -38 26.5 -56.5t70.5 -18.5h5q20 0 30 -5.5t10 -19.5
q0 -23 -9.5 -27t-30.5 -4q-43 0 -77 12t-44 49q-11 -21 -27.5 -33.5t-38.5 -18.5t-51 -7.5t-65 -1.5h-298q-8 0 -17 2t-15 7q-10 -5 -22 -7t-31 -2h-37zM487 56q32 0 54 3.5t35.5 17t19.5 39.5t6 71q0 41 -8 74t-27.5 56t-52 35.5t-81.5 12.5q-33 0 -67 -6.5t-66 -16.5
t-61 -23t-52 -25v-175q0 -15 -3 -33.5t-8 -29.5h311zM403 501q-10 0 -10 10v60q0 10 10 10h40q10 0 10 -10v-60q0 -10 -10 -10h-40z" />
    <glyph glyph-name="aZah.init" unicode="&#x638;" horiz-adv-x="710" arabic-form="initial" 
d="M61 56q17 0 28.5 3.5t18 13.5t9 26.5t2.5 42.5v528q0 10 10 10h36q10 0 10 -10v-317q51 28 113 48t128 20q75 0 121 -21.5t71.5 -55.5t34 -76t8.5 -82q0 -65 -11.5 -102t-35.5 -56t-62.5 -23.5t-92.5 -4.5h-298q-8 0 -17 2t-15 7q-10 -5 -22 -7t-31 -2h-66q-20 0 -30 5
t-10 23q0 28 40 28h61zM475 56q32 0 54 3.5t35.5 17t19.5 39.5t6 71q0 41 -8 74t-27.5 56t-52 35.5t-81.5 12.5q-33 0 -67 -6.5t-66 -16.5t-61 -23t-52 -25v-175q0 -15 -3 -33.5t-8 -29.5h311zM391 501q-10 0 -10 10v60q0 10 10 10h40q10 0 10 -10v-60q0 -10 -10 -10h-40z
" />
    <glyph glyph-name="aZah.medi" unicode="&#x638;" horiz-adv-x="752" arabic-form="medial" 
d="M631 61q-11 -21 -27.5 -33.5t-38.5 -18.5t-51 -7.5t-65 -1.5h-298q-8 0 -17 2t-15 7q-10 -5 -22 -7t-31 -2h-66q-20 0 -30 5t-10 23q0 28 40 28h61q17 0 28.5 3.5t18 13.5t9 26.5t2.5 42.5v528q0 10 10 10h36q10 0 10 -10v-317q51 28 113 48t128 20q75 0 121 -21.5
t71.5 -55.5t34 -76t8.5 -82q0 -16 -0.5 -30t-0.5 -25q0 -38 26.5 -56.5t70.5 -18.5h5q20 0 30 -5.5t10 -19.5q0 -23 -9.5 -27t-30.5 -4q-43 0 -77 12t-44 49zM475 56q32 0 54 3.5t35.5 17t19.5 39.5t6 71q0 41 -8 74t-27.5 56t-52 35.5t-81.5 12.5q-33 0 -67 -6.5t-66 -16.5
t-61 -23t-52 -25v-175q0 -15 -3 -33.5t-8 -29.5h311zM393 501q-10 0 -10 10v60q0 10 10 10h40q10 0 10 -10v-60q0 -10 -10 -10h-40z" />
    <glyph glyph-name="aAyn.fina" unicode="&#x639;" horiz-adv-x="567" arabic-form="final" 
d="M299 90q20 12 40.5 30t37 41t26.5 49.5t10 55.5q0 27 -11 45.5t-29.5 30.5t-43 17.5t-52.5 5.5q-25 0 -48 -4t-41.5 -10t-32 -12t-19.5 -10q62 -42 105 -99t58 -140zM236 -196q-48 0 -84 3t-61 14.5t-37.5 33t-12.5 58.5q0 39 16.5 64.5t44.5 42.5t65.5 28.5t79.5 23.5
q-8 43 -24.5 76.5t-37.5 59t-44.5 44t-44.5 32.5q-13 8 -13 13v54q0 9 14.5 21t40 23t61.5 18.5t78 7.5q102 0 149 -40.5t47 -115.5q0 -32 -10.5 -62t-27.5 -57t-38 -48.5t-42 -34.5q11 -2 23 -4.5t22 -2.5h166q20 0 30 -3t10 -20q0 -20 -9.5 -26.5t-30.5 -6.5h-145
q-29 0 -62 7t-59 24q-30 -12 -65.5 -21.5t-66 -21t-50.5 -29t-20 -45.5q0 -17 6.5 -27.5t22 -16.5t41 -8t63.5 -2h59q10 0 10 -10v-36q0 -10 -10 -10h-54z" />
    <glyph glyph-name="aAyn.init" unicode="&#x639;" horiz-adv-x="514" arabic-form="initial" 
d="M67 217q0 25 7 60.5t28.5 67t61.5 54t106 22.5q57 0 96.5 -21t65.5 -56q5 -9 -3 -14l-30 -22q-8 -6 -14 1q-45 56 -116 56q-38 0 -65 -11.5t-44 -31.5t-25 -46t-8 -56q0 -44 14 -74t33 -49.5t38 -29t28 -11.5h216q10 0 10 -10v-36q0 -10 -10 -10h-456q-20 0 -30 5t-10 21
q0 20 9.5 25t30.5 5h131q-27 25 -45.5 65.5t-18.5 95.5z" />
    <glyph glyph-name="aAyn.medi" unicode="&#x639;" horiz-adv-x="526" arabic-form="medial" 
d="M264 421q102 0 149 -40.5t47 -115.5q0 -33 -11.5 -64.5t-29.5 -58.5t-40 -48.5t-43 -34.5q5 -2 14 -2.5t15 -0.5h161q26 0 34 -8t8 -20q0 -17 -9.5 -22.5t-32.5 -5.5h-132q-36 0 -68 5.5t-61 23.5q-32 -20 -70 -24.5t-67 -4.5h-128q-22 0 -31.5 5t-9.5 23q0 16 8 22t33 6
h141q29 0 50 3.5t43 12.5q-8 43 -24.5 76.5t-37.5 59t-44.5 44t-44.5 32.5q-13 8 -13 13v54q0 9 14.5 21t40 23t61.5 18.5t78 7.5zM286 90q20 12 40.5 30t37 41t26.5 49.5t10 55.5q0 27 -11 45.5t-29.5 30.5t-43 17.5t-52.5 5.5q-25 0 -48 -4t-41.5 -10t-32 -12t-19.5 -10
q62 -42 105 -99t58 -140z" />
    <glyph glyph-name="aGhayn.fina" unicode="&#x63a;" horiz-adv-x="567" arabic-form="final" 
d="M299 90q20 12 40.5 30t37 41t26.5 49.5t10 55.5q0 27 -11 45.5t-29.5 30.5t-43 17.5t-52.5 5.5q-25 0 -48 -4t-41.5 -10t-32 -12t-19.5 -10q62 -42 105 -99t58 -140zM236 -196q-48 0 -84 3t-61 14.5t-37.5 33t-12.5 58.5q0 39 16.5 64.5t44.5 42.5t65.5 28.5t79.5 23.5
q-8 43 -24.5 76.5t-37.5 59t-44.5 44t-44.5 32.5q-13 8 -13 13v54q0 9 14.5 21t40 23t61.5 18.5t78 7.5q102 0 149 -40.5t47 -115.5q0 -32 -10.5 -62t-27.5 -57t-38 -48.5t-42 -34.5q11 -2 23 -4.5t22 -2.5h166q20 0 30 -3t10 -20q0 -20 -9.5 -26.5t-30.5 -6.5h-145
q-29 0 -62 7t-59 24q-30 -12 -65.5 -21.5t-66 -21t-50.5 -29t-20 -45.5q0 -17 6.5 -27.5t22 -16.5t41 -8t63.5 -2h59q10 0 10 -10v-36q0 -10 -10 -10h-54zM279 501q-10 0 -10 10v60q0 10 10 10h40q10 0 10 -10v-60q0 -10 -10 -10h-40z" />
    <glyph glyph-name="aGhayn.init" unicode="&#x63a;" horiz-adv-x="514" arabic-form="initial" 
d="M67 217q0 25 7 60.5t28.5 67t61.5 54t106 22.5q57 0 96.5 -21t65.5 -56q5 -9 -3 -14l-30 -22q-8 -6 -14 1q-45 56 -116 56q-38 0 -65 -11.5t-44 -31.5t-25 -46t-8 -56q0 -44 14 -74t33 -49.5t38 -29t28 -11.5h216q10 0 10 -10v-36q0 -10 -10 -10h-456q-20 0 -30 5t-10 21
q0 20 9.5 25t30.5 5h131q-27 25 -45.5 65.5t-18.5 95.5zM249 501q-10 0 -10 10v60q0 10 10 10h40q10 0 10 -10v-60q0 -10 -10 -10h-40z" />
    <glyph glyph-name="aGhayn.medi" unicode="&#x63a;" horiz-adv-x="526" arabic-form="medial" 
d="M264 421q102 0 149 -40.5t47 -115.5q0 -33 -11.5 -64.5t-29.5 -58.5t-40 -48.5t-43 -34.5q5 -2 14 -2.5t15 -0.5h161q26 0 34 -8t8 -20q0 -17 -9.5 -22.5t-32.5 -5.5h-132q-36 0 -68 5.5t-61 23.5q-32 -20 -70 -24.5t-67 -4.5h-128q-22 0 -31.5 5t-9.5 23q0 16 8 22t33 6
h141q29 0 50 3.5t43 12.5q-8 43 -24.5 76.5t-37.5 59t-44.5 44t-44.5 32.5q-13 8 -13 13v54q0 9 14.5 21t40 23t61.5 18.5t78 7.5zM286 90q20 12 40.5 30t37 41t26.5 49.5t10 55.5q0 27 -11 45.5t-29.5 30.5t-43 17.5t-52.5 5.5q-25 0 -48 -4t-41.5 -10t-32 -12t-19.5 -10
q62 -42 105 -99t58 -140zM244 501q-10 0 -10 10v60q0 10 10 10h40q10 0 10 -10v-60q0 -10 -10 -10h-40z" />
    <glyph glyph-name="aFeh.fina" unicode="&#x641;" horiz-adv-x="957" arabic-form="final" 
d="M698 363q-28 0 -51.5 -9t-41 -26t-27.5 -41t-10 -54q0 -29 10.5 -55t28.5 -47t41.5 -36.5t49.5 -25.5q26 10 49.5 25.5t41 36.5t28 47t10.5 55q0 62 -36.5 96t-92.5 34zM610 56q-44 32 -72.5 76t-28.5 102q0 37 13 71t37 60t59 41t80 15q46 0 81.5 -14t59.5 -39
t36.5 -58.5t12.5 -72.5q0 -29 -8 -56t-22 -51t-33 -43t-40 -31h172q20 0 30 -4.5t10 -24.5q0 -15 -9.5 -21t-30.5 -6h-129q-36 0 -68 3t-61 21q-33 -18 -70.5 -21t-66.5 -3h-399q-63 0 -90 25t-27 85v219q0 10 10 10h35q10 0 10 -10v-220q0 -29 11.5 -41t36.5 -12h461z
M679 501q-10 0 -10 10v60q0 10 10 10h40q10 0 10 -10v-60q0 -10 -10 -10h-40z" />
    <glyph glyph-name="aFeh.init" unicode="&#x641;" horiz-adv-x="518" arabic-form="initial" 
d="M0 0q-21 0 -30.5 5.5t-9.5 25.5q0 14 10 19.5t30 5.5h140q-17 28 -26.5 65t-9.5 87q0 107 48.5 160t127.5 53q176 0 176 -213q0 -111 -44.5 -159.5t-131.5 -48.5h-280zM280 365q-59 0 -89 -41.5t-30 -110.5q0 -82 28 -119.5t91 -37.5t91.5 35t28.5 114q0 74 -28.5 117
t-91.5 43zM259 501q-10 0 -10 10v60q0 10 10 10h40q10 0 10 -10v-60q0 -10 -10 -10h-40z" />
    <glyph glyph-name="aFeh.medi" unicode="&#x641;" horiz-adv-x="504" arabic-form="medial" 
d="M245 421q46 0 81.5 -14t59.5 -39t36.5 -58.5t12.5 -72.5q0 -29 -8 -56t-22 -51t-33 -43t-40 -31h172q20 0 30 -4.5t10 -24.5q0 -15 -9.5 -21t-30.5 -6h-129q-36 0 -68 3t-61 21q-33 -18 -70.5 -21t-66.5 -3h-109q-40 0 -40 29q0 16 9.5 21.5t30.5 5.5h157
q-44 32 -72.5 76t-28.5 102q0 37 13 71t37 60t59 41t80 15zM245 363q-28 0 -51.5 -9t-41 -26t-27.5 -41t-10 -54q0 -29 10.5 -55t28.5 -47t41.5 -36.5t49.5 -25.5q26 10 49.5 25.5t41 36.5t28 47t10.5 55q0 62 -36.5 96t-92.5 34zM223 501q-10 0 -10 10v60q0 10 10 10h40
q10 0 10 -10v-60q0 -10 -10 -10h-40z" />
    <glyph glyph-name="aQaf.fina" unicode="&#x642;" horiz-adv-x="734" arabic-form="final" 
d="M486 365q-56 0 -88 -42t-32 -117q0 -80 31.5 -115t96.5 -35h113v149q0 74 -28.5 117t-92.5 43zM259 -196q-104 0 -163 57t-59 158q0 60 20 115t46 92q4 7 13 0l32 -20q8 -5 3 -13q-9 -14 -19 -32.5t-18.5 -40.5t-13.5 -46.5t-5 -49.5q0 -44 13.5 -75t37 -50.5t55 -28
t67.5 -8.5h228q59 0 84.5 12.5t25.5 54.5v71h-112q-42 0 -76 11t-58.5 36t-37.5 64.5t-13 96.5q0 54 13.5 94t37.5 66.5t56.5 39.5t70.5 13q176 0 176 -215v-150h71q40 0 40 -25q0 -21 -9.5 -26t-30.5 -5h-71v-63q0 -33 -6 -58t-23 -41.5t-47.5 -25t-78.5 -8.5h-249z
M521 501q-10 0 -10 10v60q0 10 10 10h52q10 0 10 -10v-60q0 -10 -10 -10h-52zM393 501q-10 0 -10 10v60q0 10 10 10h52q10 0 10 -10v-60q0 -10 -10 -10h-52z" />
    <glyph glyph-name="aQaf.init" unicode="&#x642;" horiz-adv-x="518" arabic-form="initial" 
d="M0 0q-21 0 -30.5 5.5t-9.5 25.5q0 14 10 19.5t30 5.5h140q-17 28 -26.5 65t-9.5 87q0 107 48.5 160t127.5 53q176 0 176 -213q0 -111 -44.5 -159.5t-131.5 -48.5h-280zM280 365q-59 0 -89 -41.5t-30 -110.5q0 -82 28 -119.5t91 -37.5t91.5 35t28.5 114q0 74 -28.5 117
t-91.5 43zM316 501q-10 0 -10 10v60q0 10 10 10h52q10 0 10 -10v-60q0 -10 -10 -10h-52zM188 501q-10 0 -10 10v60q0 10 10 10h52q10 0 10 -10v-60q0 -10 -10 -10h-52z" />
    <glyph glyph-name="aQaf.medi" unicode="&#x642;" horiz-adv-x="504" arabic-form="medial" 
d="M245 421q46 0 81.5 -14t59.5 -39t36.5 -58.5t12.5 -72.5q0 -29 -8 -56t-22 -51t-33 -43t-40 -31h172q20 0 30 -4.5t10 -24.5q0 -15 -9.5 -21t-30.5 -6h-129q-36 0 -68 3t-61 21q-33 -18 -70.5 -21t-66.5 -3h-109q-40 0 -40 29q0 16 9.5 21.5t30.5 5.5h157
q-44 32 -72.5 76t-28.5 102q0 37 13 71t37 60t59 41t80 15zM245 363q-28 0 -51.5 -9t-41 -26t-27.5 -41t-10 -54q0 -29 10.5 -55t28.5 -47t41.5 -36.5t49.5 -25.5q26 10 49.5 25.5t41 36.5t28 47t10.5 55q0 62 -36.5 96t-92.5 34zM282 501q-10 0 -10 10v60q0 10 10 10h52
q10 0 10 -10v-60q0 -10 -10 -10h-52zM154 501q-10 0 -10 10v60q0 10 10 10h52q10 0 10 -10v-60q0 -10 -10 -10h-52z" />
    <glyph glyph-name="aKaf.fina" unicode="&#x643;" horiz-adv-x="847" arabic-form="final" 
d="M744 126q0 -36 27.5 -53t69.5 -17h6q20 0 30 -5.5t10 -19.5q0 -23 -9.5 -27t-30.5 -4q-40 0 -68 11t-45 39q-20 -50 -94 -50h-477q-63 0 -90 25t-27 85v219q0 10 10 10h35q10 0 10 -10v-220q0 -29 11.5 -41t36.5 -12h491q26 0 37.5 11.5t11.5 41.5v561q0 10 10 10h35
q10 0 10 -10v-544zM406 424h22q28 0 39.5 -13.5t11.5 -35.5v-46q0 -33 -12.5 -44.5t-44.5 -11.5h-107q-10 0 -10 10v18q0 10 10 10h107q11 0 14.5 5t3.5 16v26q0 18 -6.5 23t-20.5 5h-56q-10 0 -10 10v13q0 7 5 12l79 94q8 10 16 2l15 -14q7 -7 -1 -15z" />
    <glyph glyph-name="aKaf.init" unicode="&#x643;" horiz-adv-x="492" arabic-form="initial" 
d="M81 347q-10 0 -10 10v37q0 9 3 9l222 261q7 8 13 3l29 -23q10 -7 4 -14l-192 -227h115q38 0 69.5 -10t53.5 -30.5t34 -52.5t12 -77v-62q0 -50 -7 -83t-23.5 -52.5t-43 -27.5t-66.5 -8h-294q-20 0 -30 5.5t-10 22.5q0 18 9.5 23t30.5 5h282q30 0 48.5 5t28 16.5t12.5 31
t3 48.5v79q0 56 -30 83.5t-96 27.5h-167z" />
    <glyph glyph-name="aKaf.medi" unicode="&#x643;" horiz-adv-x="535" arabic-form="medial" 
d="M265 403q38 0 69.5 -10t53.5 -30.5t34 -52.5t12 -77v-101q0 -38 26.5 -57t70.5 -19h6q20 0 30 -6t10 -23t-9.5 -22t-30.5 -5q-42 0 -75 11t-45 47q-14 -32 -42 -45t-73 -13h-302q-40 0 -40 28q0 20 9.5 24t30.5 4h282q30 0 48.5 5t28 16.5t12.5 31t3 48.5v79
q0 56 -30 83.5t-96 27.5h-167q-10 0 -10 10v37q0 9 3 9l222 261q7 8 13 3l29 -23q10 -7 4 -14l-192 -227h115z" />
    <glyph glyph-name="aLam.fina" unicode="&#x644;" horiz-adv-x="600" arabic-form="final" 
d="M443 669q0 10 10 10h35q10 0 10 -10v-538q0 -38 23.5 -56.5t65.5 -18.5h13q24 0 32 -5.5t8 -22.5t-9.5 -22.5t-30.5 -5.5q-30 0 -57.5 7t-44.5 25v-13q0 -46 -13.5 -84.5t-41 -66.5t-70.5 -44t-101 -16q-54 0 -96.5 15t-71 42.5t-43.5 66.5t-15 86q0 63 20.5 115t44.5 86
q4 6 14 0l31 -20q8 -5 3 -13q-20 -31 -38 -73.5t-18 -88.5q0 -47 17 -77.5t43 -48t56.5 -24.5t58.5 -7q34 0 64.5 8t52.5 26t35 46.5t13 69.5v652z" />
    <glyph glyph-name="aLam.init" unicode="&#x644;" horiz-adv-x="255" arabic-form="initial" 
d="M0 0q-20 0 -30 5t-10 22q0 19 9.5 24t30.5 5h73q25 0 38.5 12t13.5 41v561q0 10 10 10h35q10 0 10 -10v-544q0 -32 -5 -56t-18 -39.5t-35.5 -23t-58.5 -7.5h-63z" />
    <glyph glyph-name="aLam.medi" unicode="&#x644;" horiz-adv-x="282" arabic-form="medial" 
d="M180 131q0 -38 26.5 -56.5t70.5 -18.5h6q20 0 30 -5.5t10 -21.5t-9 -22.5t-31 -6.5q-42 0 -72 9.5t-44 43.5q-12 -24 -32 -38.5t-58 -14.5h-77q-19 0 -29.5 5.5t-10.5 21.5q0 17 10 23t30 6h71q19 0 30 5t16 15.5t6.5 26.5t1.5 37v530q0 10 10 10h35q10 0 10 -10v-539z
" />
    <glyph glyph-name="aMim.fina" unicode="&#x645;" horiz-adv-x="602" arabic-form="final" 
d="M182 75q-11 -18 -28 -25.5t-32.5 -16t-26.5 -23t-11 -46.5v-160h-55v181q0 30 9.5 49.5t24 32.5t31.5 21.5t32 17.5t25.5 20.5t12.5 30.5q-1 9 -1.5 20t-0.5 21q0 223 176 223q87 0 132 -53t45 -160q0 -13 -0.5 -33.5t-2.5 -31.5q0 -26 5 -43t14 -27t22 -13.5t29 -3.5h21
q20 0 30 -6t10 -23t-9.5 -22t-30.5 -5h-17q-35 0 -64.5 10.5t-46.5 39.5q-23 -31 -58 -44t-79 -13q-22 0 -44 3.5t-42.5 13t-38.5 25.5t-31 40zM338 365q-63 0 -91 -42.5t-28 -117.5q0 -156 119 -156q63 0 91.5 38.5t28.5 117.5q0 74 -28.5 117t-91.5 43z" />
    <glyph glyph-name="aMim.init" unicode="&#x645;" horiz-adv-x="527" arabic-form="initial" 
d="M292 -7q-44 0 -80.5 13t-58.5 43q-18 -33 -42 -41t-52 -8h-59q-20 0 -30 5t-10 22q0 20 9.5 24.5t30.5 4.5h55q11 0 22 4t20 14.5t15 27.5t6 43q-1 12 -1.5 25.5t-0.5 27.5q0 223 176 223q87 0 131.5 -53t44.5 -160q0 -111 -44.5 -163t-131.5 -52zM292 365
q-63 0 -91 -42.5t-28 -117.5q0 -79 28 -117.5t91 -38.5t91.5 38.5t28.5 117.5q0 74 -28.5 117t-91.5 43z" />
    <glyph glyph-name="aMim.medi" unicode="&#x645;" horiz-adv-x="556" arabic-form="medial" 
d="M466 143q0 -26 5 -43t14 -27t22 -13.5t29 -3.5h21q20 0 30 -6t10 -23t-9.5 -22t-30.5 -5h-17q-35 0 -64.5 10.5t-46.5 39.5q-23 -31 -58 -44t-79 -13t-80.5 13t-58.5 43q-18 -33 -42 -41t-52 -8h-59q-20 0 -30 5t-10 22q0 20 9.5 24.5t30.5 4.5h55q11 0 22 4t20 14.5
t15 27.5t6 43q-1 12 -1.5 25.5t-0.5 27.5q0 223 176 223q87 0 132 -53t45 -160q0 -13 -0.5 -33.5t-2.5 -31.5zM292 365q-63 0 -91 -42.5t-28 -117.5q0 -79 28 -117.5t91 -38.5t91.5 38.5t28.5 117.5q0 74 -28.5 117t-91.5 43z" />
    <glyph glyph-name="aNun.fina" unicode="&#x646;" horiz-adv-x="592" arabic-form="final" 
d="M443 305q0 10 10 10h35q10 0 10 -10v-174q0 -38 23.5 -56.5t65.5 -18.5h5q24 0 32 -5.5t8 -22.5t-9.5 -22.5t-30.5 -5.5q-30 0 -53.5 7t-40.5 25v-13q0 -46 -13.5 -84.5t-41 -66.5t-70.5 -44t-101 -16q-54 0 -96.5 15t-71 42.5t-43.5 66.5t-15 86q0 63 20.5 115t44.5 86
q4 6 14 0l31 -20q8 -5 3 -13q-20 -31 -38 -73.5t-18 -88.5q0 -47 17 -77.5t43 -48t56.5 -24.5t58.5 -7q34 0 64.5 8t52.5 26t35 46.5t13 69.5v288zM293 315q-10 0 -10 10v60q0 10 10 10h40q10 0 10 -10v-60q0 -10 -10 -10h-40z" />
    <glyph glyph-name="aNun.init" unicode="&#x646;" horiz-adv-x="255" arabic-form="initial" 
d="M0 0q-20 0 -30 5t-10 22q0 19 9.5 24t30.5 5h73q25 0 38.5 12t13.5 41v284q0 10 10 10h35q10 0 10 -10v-267q0 -32 -5 -56t-18 -39.5t-35.5 -23t-58.5 -7.5h-63zM132 501q-10 0 -10 10v60q0 10 10 10h40q10 0 10 -10v-60q0 -10 -10 -10h-40z" />
    <glyph glyph-name="aNun.medi" unicode="&#x646;" horiz-adv-x="283" arabic-form="medial" 
d="M180 131q0 -38 26.5 -56.5t70.5 -18.5h6q20 0 30 -5.5t10 -21.5t-9 -22.5t-31 -6.5q-42 0 -72 9.5t-44 43.5q-12 -24 -32 -38.5t-58 -14.5h-77q-19 0 -29.5 5.5t-10.5 21.5q0 17 10 23t30 6h71q19 0 30 5t16 15.5t6.5 26.5t1.5 37v253q0 10 10 10h35q10 0 10 -10v-262z
M132 501q-10 0 -10 10v60q0 10 10 10h40q10 0 10 -10v-60q0 -10 -10 -10h-40z" />
    <glyph glyph-name="aHeh.isol" unicode="&#x647;" horiz-adv-x="621" arabic-form="isolated" 
d="M94 0q-23 0 -29.5 -6.5t-6.5 -27.5v-23q0 -10 -10 -10h-35q-10 0 -10 10v57q0 18 5.5 29t14.5 17t19.5 8t21.5 2h83q-10 14 -15.5 38.5t-5.5 47.5q0 72 37 109t97 37q55 0 91.5 -36t36.5 -99q0 -40 -8.5 -64t-15.5 -33h23q40 0 63 8t34.5 24.5t14.5 41t3 57.5
q0 87 -50.5 131.5t-141.5 44.5q-38 0 -78 -10t-78 -31q-4 -2 -8 -3.5t-6 2.5l-17 30q-6 11 0 15q48 29 96.5 41t100.5 12q68 0 114.5 -20t75 -53t40.5 -74.5t12 -84.5q0 -51 -8.5 -86.5t-27.5 -58t-50 -32.5t-75 -10h-307zM257 231q-20 0 -34 -7.5t-22.5 -20t-12 -28
t-3.5 -31.5q0 -26 5.5 -43t15 -27t21.5 -14t24 -4h13q13 0 24.5 3.5t20 13t13.5 26t5 43.5q0 17 -3 33t-11 28.5t-21.5 20t-34.5 7.5z" />
    <glyph glyph-name="aHeh.fina" unicode="&#x647;" horiz-adv-x="473" arabic-form="final" 
d="M319 421v43q0 10 10 10h35q10 0 10 -10v-355q0 -30 11.5 -41.5t36.5 -11.5h51q20 0 30 -6t10 -23q0 -20 -9.5 -23.5t-30.5 -3.5h-54q-18 0 -36 3.5t-32 12.5t-23 26t-9 44q-18 -18 -45 -28.5t-71 -10.5q-75 0 -119.5 43.5t-44.5 133.5q0 54 13.5 91.5t38 61t58 34
t73.5 10.5h97zM207 103q64 0 88 29t24 79v154h-107q-54 0 -85.5 -31t-31.5 -110q0 -64 28.5 -92.5t83.5 -28.5z" />
    <glyph glyph-name="aHeh.init" unicode="&#x647;" horiz-adv-x="606" arabic-form="initial" 
d="M295 363q-38 0 -78 -10t-78 -31q-4 -2 -8 -3.5t-6 2.5l-17 30q-6 11 0 15q48 29 96.5 41t100.5 12q68 0 114.5 -20t75 -53t40.5 -74.5t12 -84.5q0 -51 -8.5 -86.5t-27.5 -58t-50 -32.5t-75 -10h-386q-20 0 -30 5t-10 21q0 20 9.5 25t30.5 5h132q-10 14 -15.5 38.5
t-5.5 47.5q0 72 37 109t97 37q55 0 91.5 -36t36.5 -99q0 -40 -8.5 -64t-15.5 -33h23q40 0 63 8t34.5 24.5t14.5 41t3 57.5q0 87 -50.5 131.5t-141.5 44.5zM242 231q-20 0 -34 -7.5t-22.5 -20t-12 -28t-3.5 -31.5q0 -26 5.5 -43t15 -27t21.5 -14t24 -4h13q13 0 24.5 3.5
t20 13t13.5 26t5 43.5q0 17 -3 33t-11 28.5t-21.5 20t-34.5 7.5z" />
    <glyph glyph-name="aHeh.medi" unicode="&#x647;" horiz-adv-x="548" arabic-form="medial" 
d="M-40 28q0 19 9.5 23.5t30.5 4.5h124v149q0 107 48 161.5t125 54.5q88 0 132.5 -53.5t44.5 -156.5q0 -46 -13.5 -87.5t-31.5 -67.5h119q41 0 41 -29q0 -15 -10.5 -21t-30.5 -6h-108q11 -12 18 -30t7 -38q0 -25 -9 -48.5t-29.5 -42t-53 -30t-79.5 -11.5q-92 0 -131 35.5
t-39 98.5v66h-124q-40 0 -40 28zM296 365q-53 0 -84.5 -38t-31.5 -110v-161h140q26 0 44.5 14.5t30 37t17 49.5t5.5 52q0 73 -29.5 114.5t-91.5 41.5zM297 -144q61 0 86 18t25 54q0 15 -4.5 28.5t-17.5 23t-36.5 15t-61.5 5.5h-108v-64q0 -47 29.5 -63.5t87.5 -16.5z" />
    <glyph glyph-name="aWaw.fina" unicode="&#x648;" horiz-adv-x="489" arabic-form="final" 
d="M145 -196q-10 0 -10 10v36q0 10 10 10h122q49 0 72.5 18t23.5 72v50h-113q-42 0 -76 10t-58.5 33t-37.5 61.5t-13 95.5q0 54 14 95.5t38.5 69t57 42t70.5 14.5q89 0 131.5 -53t42.5 -162v-150h70q20 0 30 -5t10 -20q0 -20 -9.5 -25.5t-30.5 -5.5h-70v-49
q0 -78 -32.5 -112.5t-102.5 -34.5h-139zM245 365q-55 0 -88.5 -42t-33.5 -125q0 -40 7.5 -67t23.5 -43.5t40 -24t56 -7.5h113v148q0 77 -27 119t-91 42z" />
    <glyph glyph-name="aAlifMaksura.fina" unicode="&#x649;" horiz-adv-x="728" arabic-form="final" 
d="M94 25q0 -45 14 -76t37.5 -50.5t55 -28t67.5 -8.5h248q59 0 82 18.5t23 51.5q0 26 -14.5 43.5t-42.5 32.5t-68.5 29t-91.5 33q-9 3 -6 12l17 40q3 10 12 7q32 -12 62.5 -25t60.5 -23.5t58.5 -17.5t57.5 -7h62q20 0 30 -3t10 -20q0 -20 -9.5 -26.5t-30.5 -6.5h-74
q5 -8 12.5 -28t7.5 -43t-7.5 -45.5t-25 -40t-45.5 -28.5t-68 -11h-269q-104 0 -163 57t-59 158q0 63 20.5 115t44.5 86q4 6 14 0l31 -20q8 -5 3 -13q-20 -31 -38 -73.5t-18 -88.5z" />
    <glyph glyph-name="aYeh.fina" unicode="&#x64a;" horiz-adv-x="728" arabic-form="final" 
d="M94 25q0 -45 14 -76t37.5 -50.5t55 -28t67.5 -8.5h248q59 0 82 18.5t23 51.5q0 26 -14.5 43.5t-42.5 32.5t-68.5 29t-91.5 33q-9 3 -6 12l17 40q3 10 12 7q32 -12 62.5 -25t60.5 -23.5t58.5 -17.5t57.5 -7h62q20 0 30 -3t10 -20q0 -20 -9.5 -26.5t-30.5 -6.5h-74
q5 -8 12.5 -28t7.5 -43t-7.5 -45.5t-25 -40t-45.5 -28.5t-68 -11h-269q-104 0 -163 57t-59 158q0 63 20.5 115t44.5 86q4 6 14 0l31 -20q8 -5 3 -13q-20 -31 -38 -73.5t-18 -88.5zM386 -350q-10 0 -10 10v60q0 10 10 10h52q10 0 10 -10v-60q0 -10 -10 -10h-52zM258 -350
q-10 0 -10 10v60q0 10 10 10h52q10 0 10 -10v-60q0 -10 -10 -10h-52z" />
    <glyph glyph-name="aYeh.init" unicode="&#x64a;" horiz-adv-x="254" arabic-form="initial" 
d="M0 0q-20 0 -30 4t-10 20q0 20 9.5 26t30.5 6h72q25 0 36.5 11.5t11.5 41.5v284q0 10 10 10h36q10 0 10 -10v-267q0 -65 -27 -95.5t-90 -30.5h-59zM158 -164q-10 0 -10 10v60q0 10 10 10h52q10 0 10 -10v-60q0 -10 -10 -10h-52zM30 -164q-10 0 -10 10v60q0 10 10 10h52
q10 0 10 -10v-60q0 -10 -10 -10h-52z" />
    <glyph glyph-name="aYeh.medi" unicode="&#x64a;" horiz-adv-x="287" arabic-form="medial" 
d="M184 131q0 -38 26.5 -56.5t70.5 -18.5h6q20 0 30 -5.5t10 -21.5t-9 -22.5t-31 -6.5q-42 0 -72 9.5t-44 43.5q-12 -24 -32 -38.5t-58 -14.5h-81q-19 0 -27.5 5.5t-8.5 21.5q0 17 8 23t28 6h75q19 0 30 5t16 15.5t6.5 26.5t1.5 37v253q0 10 10 10h35q10 0 10 -10v-262z
M179 -164q-10 0 -10 10v60q0 10 10 10h52q10 0 10 -10v-60q0 -10 -10 -10h-52zM51 -164q-10 0 -10 10v60q0 10 10 10h52q10 0 10 -10v-60q0 -10 -10 -10h-52z" />
    <glyph glyph-name=".notdef" horiz-adv-x="470" 
d="M0 670q0 10 10 10h450q10 0 10 -10v-660q0 -10 -10 -10h-450q-10 0 -10 10v660zM39 43q0 -6 6 -6h380q6 0 6 6v594q0 6 -6 6h-380q-6 0 -6 -6v-594zM215 224q-10 0 -10 10v24q0 23 5 37.5t17 29.5l37 48q23 27 30 43.5t7 36.5q0 32 -20 51t-52 19q-62 0 -77 -67
q-2 -9 -12 -8l-21 4q-10 2 -8 11q8 44 39.5 71.5t79.5 27.5q51 0 81.5 -31.5t30.5 -77.5q0 -29 -9 -49.5t-29 -44.5l-37 -48q-13 -16 -16.5 -26.5t-3.5 -28.5v-22q0 -10 -10 -10h-22zM200 162q0 10 10 10h31q10 0 10 -10v-39q0 -10 -10 -10h-31q-10 0 -10 10v39z" />
    <glyph glyph-name=".null" horiz-adv-x="500" 
 />
    <glyph glyph-name=".null" horiz-adv-x="500" 
 />
    <glyph glyph-name="nonmarkingreturn" unicode="&#xd;" horiz-adv-x="0" 
 />
    <glyph glyph-name="space" unicode=" " horiz-adv-x="246" 
 />
    <glyph glyph-name="space" unicode="&#xa0;" horiz-adv-x="246" 
 />
    <glyph glyph-name="exclam" unicode="!" horiz-adv-x="266" 
d="M122 177q-10 0 -10 10l-8 483q0 10 10 10h39q10 0 10 -10l-8 -483q0 -10 -10 -10h-23zM98 77q0 10 10 10h50q10 0 10 -10v-67q0 -10 -10 -10h-50q-10 0 -10 10v67z" />
    <glyph glyph-name="quotedbl" unicode="&#x22;" horiz-adv-x="314" 
d="M204 520q-10 0 -10 10v140q0 10 10 10h26q10 0 10 -10v-140q0 -10 -10 -10h-26zM84 520q-10 0 -10 10v140q0 10 10 10h26q10 0 10 -10v-140q0 -10 -10 -10h-26z" />
    <glyph glyph-name="numbersign" unicode="#" horiz-adv-x="518" 
d="M117 219h-80q-10 0 -10 10v24q0 10 10 10h86l23 169h-84q-10 0 -10 10v25q0 10 10 10h90l27 193q2 10 11 10h27q11 0 9 -10l-27 -193h150l27 193q2 10 11 10h27q11 0 9 -10l-27 -193h85q10 0 10 -10v-25q0 -10 -10 -10h-91l-23 -169h90q10 0 10 -10v-24q0 -10 -10 -10
h-96l-28 -209q-2 -10 -11 -10h-27q-11 0 -9 10l28 209h-150l-28 -209q-2 -10 -11 -10h-27q-11 0 -9 10zM320 263l23 169h-150l-23 -169h150z" />
    <glyph glyph-name="dollar" unicode="$" 
d="M65 50q-3 2 -3.5 6.5t2.5 7.5l21 28q5 6 14 1q29 -19 67 -34t86 -17v277q-90 14 -132.5 62t-42.5 119q0 41 13 74.5t36 58t55 39t71 17.5v52q0 10 10 10h19q10 0 10 -10v-52q42 -2 79 -14.5t66 -30.5q4 -2 5 -6t-2 -8l-17 -27q-6 -8 -14 -3q-31 17 -58.5 26t-58.5 11
v-268q93 -14 137 -60.5t44 -121.5q0 -41 -12 -75t-35.5 -59.5t-57 -41t-76.5 -19.5v-53q0 -10 -10 -10h-19q-10 0 -10 10v51q-56 2 -104.5 19t-82.5 41zM252 637q-56 -5 -89 -40.5t-33 -91.5q0 -51 26.5 -84t95.5 -47v263zM291 43q60 7 94 43t34 98q0 51 -28.5 84.5
t-99.5 44.5v-270z" />
    <glyph glyph-name="percent" unicode="%" horiz-adv-x="770" 
d="M558 680q6 10 14 10h27q11 0 6 -10l-394 -680q-6 -10 -14 -10h-27q-11 0 -6 10zM205 330q-42 0 -70 19.5t-39 54.5q-2 6 -3 12.5t-2.5 18t-2 29t-0.5 45.5t0.5 45.5t2 28.5t2.5 18t3 13q11 35 39 54.5t70 19.5q41 0 69 -19.5t39 -54.5q1 -6 2.5 -13t3 -18t2 -28.5
t0.5 -45.5t-0.5 -45.5t-2 -29t-3 -18t-2.5 -12.5q-11 -35 -39 -54.5t-69 -19.5zM205 371q24 0 40.5 10.5t23.5 32.5q2 5 3.5 10.5t2 15.5t1 26t0.5 43t-0.5 43t-1 26t-2 15.5t-3.5 10.5q-7 22 -23.5 32.5t-40.5 10.5q-52 0 -65 -43q-2 -5 -3.5 -10.5t-2 -15.5t-1 -26
t-0.5 -43t0.5 -43t1 -26t2 -15.5t3.5 -10.5q13 -43 65 -43zM458 66q-2 6 -3.5 12.5t-2.5 17.5t-1.5 29t-0.5 46t0.5 45.5t1.5 28.5t2.5 18t3.5 13q11 35 39 54.5t69 19.5t69 -19.5t39 -54.5q2 -6 3.5 -13t2.5 -18t1.5 -28.5t0.5 -45.5t-0.5 -46t-1.5 -29t-2.5 -17.5
t-3.5 -12.5q-11 -35 -39 -54.5t-69 -19.5t-69 19.5t-39 54.5zM501 76q15 -43 65 -43t65 43q1 5 2.5 10.5t2.5 15t1.5 26t0.5 43.5t-0.5 43t-1.5 26t-2.5 15t-2.5 10q-15 43 -65 43t-65 -43q-2 -5 -3 -10t-2 -15t-1.5 -26t-0.5 -43t0.5 -43.5t1.5 -26t2 -15t3 -10.5z" />
    <glyph glyph-name="ampersand" unicode="&#x26;" horiz-adv-x="618" 
d="M76 162q0 59 36 110.5t105 107.5q-26 33 -43.5 57.5t-28.5 44.5t-16 36.5t-5 34.5q0 30 11 55t30.5 43.5t46 28.5t57.5 10q32 0 58.5 -10.5t45 -28.5t29 -43t10.5 -54q0 -22 -5.5 -42t-20 -41.5t-38.5 -45t-60 -53.5l152 -197l71 89q6 8 14 2l21 -18q9 -6 2 -14l-78 -99
l47 -61q11 -14 19.5 -18t19.5 -4h14q10 0 10 -10v-32q0 -10 -10 -10h-21q-26 0 -41 8.5t-32 31.5l-40 53q-46 -53 -89 -78t-97 -25q-41 0 -73 12.5t-54.5 35t-34.5 54.5t-12 70zM257 413q34 27 54.5 47t31.5 36t14.5 29.5t3.5 28.5q0 38 -26 62t-66 24q-41 0 -66.5 -24
t-25.5 -62q0 -13 3.5 -24.5t12.5 -27t24.5 -37t39.5 -52.5zM128 164q0 -55 32.5 -89.5t90.5 -34.5q43 0 78.5 22.5t76.5 70.5l-159 207q-57 -47 -88 -87.5t-31 -88.5z" />
    <glyph glyph-name="quotesingle" unicode="'" horiz-adv-x="194" 
d="M84 520q-10 0 -10 10v140q0 10 10 10h26q10 0 10 -10v-140q0 -10 -10 -10h-26v0z" />
    <glyph glyph-name="parenleft" unicode="(" horiz-adv-x="276" 
d="M185 -74q-54 91 -82 195t-28 207t28 207t82 195q7 10 15 10h20q5 0 7 -2.5t0 -7.5q-47 -91 -73 -195t-26 -207t26.5 -207.5t72.5 -194.5q2 -5 0 -7.5t-7 -2.5h-20q-8 0 -15 10z" />
    <glyph glyph-name="parenright" unicode=")" horiz-adv-x="276" 
d="M49 -74q47 90 73 194.5t26 207.5t-26 207t-73 195q-2 5 0 7.5t7 2.5h21q7 0 14 -10q54 -91 82 -195t28 -207t-28 -207t-82 -195q-7 -10 -14 -10h-21q-5 0 -7 2.5t0 7.5z" />
    <glyph glyph-name="asterisk" unicode="*" horiz-adv-x="349" 
d="M166 402q-10 0 -10 10v96l-84 -48q-9 -5 -14 4l-8 15q-6 9 4 14l83 48l-83 48q-10 5 -4 14l8 15q5 9 14 4l84 -49v97q0 10 10 10h17q10 0 10 -10v-97l84 49q9 5 14 -4l8 -15q6 -9 -4 -14l-84 -48l84 -48q10 -5 4 -14l-8 -15q-5 -9 -14 -4l-84 49v-97q0 -10 -10 -10h-17v0
z" />
    <glyph glyph-name="plus" unicode="+" 
d="M240 245q0 6 -6 6h-158q-10 0 -10 10v30q0 10 10 10h158q6 0 6 6v160q0 10 10 10h32q10 0 10 -10v-160q0 -6 6 -6h158q10 0 10 -10v-30q0 -10 -10 -10h-158q-6 0 -6 -6v-160q0 -10 -10 -10h-32q-10 0 -10 10v160z" />
    <glyph glyph-name="comma" unicode="," horiz-adv-x="213" 
d="M75 77q0 10 10 10h43q10 0 10 -10v-75q0 -8 -1 -12t-4 -10l-39 -77q-4 -8 -12 -8q-7 0 -7 9v173v0z" />
    <glyph glyph-name="hyphen" unicode="-" horiz-adv-x="374" 
d="M59 241q-10 0 -10 10v31q0 10 10 10h256q10 0 10 -10v-31q0 -10 -10 -10h-256v0z" />
    <glyph glyph-name="hyphen" unicode="&#x2010;" horiz-adv-x="374" 
d="M59 241q-10 0 -10 10v31q0 10 10 10h256q10 0 10 -10v-31q0 -10 -10 -10h-256v0z" />
    <glyph glyph-name="hyphen" unicode="&#xad;" horiz-adv-x="374" 
d="M59 241q-10 0 -10 10v31q0 10 10 10h256q10 0 10 -10v-31q0 -10 -10 -10h-256v0z" />
    <glyph glyph-name="period" unicode="." horiz-adv-x="219" 
d="M75 77q0 10 10 10h49q10 0 10 -10v-67q0 -10 -10 -10h-49q-10 0 -10 10v67z" />
    <glyph glyph-name="slash" unicode="/" horiz-adv-x="407" 
d="M289 680q3 10 13 10h30q10 0 7 -10l-221 -680q-3 -10 -13 -10h-30q-10 0 -7 10z" />
    <glyph glyph-name="zero" unicode="0" 
d="M91 112q-3 9 -5.5 23t-5 39t-3.5 65t-1 101t1 101t3.5 65t5 39t5.5 23q20 60 65 91t110 31t110 -31t65 -91q3 -9 5.5 -23t5 -39t3.5 -65t1 -101t-1 -101t-3.5 -65t-5 -39t-5.5 -23q-20 -60 -65 -91t-110 -31t-110 31t-65 91zM144 124q14 -43 45.5 -63t76.5 -20t76.5 20
t45.5 63q3 8 5.5 21t4.5 36.5t3 61.5t1 97t-1 97t-3 61.5t-4.5 36.5t-5.5 21q-14 43 -45.5 63t-76.5 20t-76.5 -20t-45.5 -63q-3 -8 -5.5 -21t-4.5 -36.5t-3 -61.5t-1 -97t1 -97t3 -61.5t4.5 -36.5t5.5 -21z" />
    <glyph glyph-name="one" unicode="1" 
d="M257 607h-2l-123 -87q-4 -3 -7.5 -1.5t-3.5 7.5v42q0 9 7 15l126 91q7 6 15 6h32q10 0 10 -10v-660q0 -10 -10 -10h-34q-10 0 -10 10v597z" />
    <glyph glyph-name="two" unicode="2" 
d="M83 36q0 8 4 13l251 329q26 33 41 65.5t15 67.5q0 56 -36 91.5t-94 35.5q-57 0 -89 -31.5t-41 -85.5q-2 -9 -12 -8l-31 8q-10 2 -8 11q4 31 17.5 59.5t36.5 50.5t55 35t73 13t75 -13.5t58 -37t37 -56.5t13 -72q0 -45 -18.5 -84.5t-50.5 -81.5l-224 -292v-1h283
q10 0 10 -10v-32q0 -10 -10 -10h-345q-10 0 -10 10v26z" />
    <glyph glyph-name="three" unicode="3" 
d="M73 130q-3 10 7 13l32 8q10 3 13 -7q5 -18 15.5 -36t27 -33t40.5 -24t57 -9q64 0 101.5 39.5t37.5 101.5q0 31 -10.5 58t-29 46t-45 30t-58.5 11h-31q-10 0 -10 10v32q0 10 10 10h30q58 0 93.5 36.5t35.5 94.5q0 57 -34 92t-94 35q-29 0 -51 -8t-37.5 -21.5t-25.5 -31.5
t-14 -37q-2 -10 -11 -8l-33 9q-10 2 -8 12q5 26 19 51t36.5 44t54 30.5t71.5 11.5q42 0 75.5 -13t57.5 -37t36.5 -56.5t12.5 -71.5q0 -30 -8 -54t-21 -43t-29.5 -33t-32.5 -23v-2q17 -7 35.5 -21t34 -35.5t25.5 -50t10 -65.5q0 -43 -14 -79t-39.5 -61.5t-61 -40t-78.5 -14.5
t-76 12t-57 31.5t-38.5 44.5t-20.5 52z" />
    <glyph glyph-name="four" unicode="4" 
d="M67 136q-10 0 -10 10v30q0 3 0.5 5.5t1.5 5.5l221 485q4 8 13 8h37q11 0 7 -9l-219 -482v-1h210q6 0 6 6v186q0 10 10 10h34q10 0 10 -10v-186q0 -6 6 -6h75q10 0 10 -10v-32q0 -10 -10 -10h-75q-6 0 -6 -6v-120q0 -10 -10 -10h-34q-10 0 -10 10v120q0 6 -6 6h-261v0z
" />
    <glyph glyph-name="five" unicode="5" 
d="M91 134q-2 9 7 12l32 8q9 3 13 -8q8 -45 40.5 -74.5t89.5 -29.5q42 0 73.5 19.5t45.5 58.5q10 31 10 98q0 35 -3 59t-9 41q-12 38 -42 57t-73 19q-48 0 -79 -24.5t-41 -56.5q-3 -10 -10 -10h-33q-10 0 -10 10v357q0 10 10 10h321q10 0 10 -10v-32q0 -10 -10 -10h-273
q-6 0 -6 -6v-235h2q13 22 45 40.5t79 18.5q60 0 101.5 -27t58.5 -81q7 -21 11.5 -49.5t4.5 -70.5q0 -38 -3.5 -66t-10.5 -48q-18 -55 -62.5 -84.5t-105.5 -29.5q-39 0 -71 11t-55.5 30t-38 45.5t-18.5 57.5z" />
    <glyph glyph-name="six" unicode="6" 
d="M68 195q0 41 12.5 79.5t31.5 73.5l169 325q4 7 13 7h37q5 0 6.5 -3t-0.5 -6l-153 -295l2 -1q13 11 36 17.5t52 6.5q41 0 76 -14.5t60.5 -41t40 -63.5t14.5 -83q0 -48 -15 -86t-41 -65t-62.5 -41.5t-79.5 -14.5q-44 0 -80.5 14.5t-62.5 41t-41 64.5t-15 85zM122 194
q0 -68 40 -110t105 -42q32 0 58.5 11t45.5 31t29.5 48t10.5 62t-10.5 62t-29.5 48t-45.5 31.5t-58.5 11.5q-65 0 -105 -42.5t-40 -110.5z" />
    <glyph glyph-name="seven" unicode="7" 
d="M400 625v3h-246q-6 0 -6 -6v-93q0 -10 -10 -10h-34q-10 0 -10 10v141q0 10 10 10h344q10 0 10 -10v-37q0 -4 -2 -10l-244 -614q-2 -5 -4.5 -7t-8.5 -2h-37q-10 0 -5 11z" />
    <glyph glyph-name="eight" unicode="8" 
d="M66 184q0 63 30.5 108t78.5 65v2q-40 20 -65.5 59t-25.5 93q0 38 13 70.5t37 56.5t57.5 38t74.5 14t74.5 -14t57.5 -38t37 -56.5t13 -70.5q0 -54 -25.5 -93t-65.5 -59v-2q48 -20 78.5 -65t30.5 -108q0 -43 -15 -78.5t-41.5 -61t-63 -40t-80.5 -14.5t-80.5 14.5t-63 40
t-41.5 61t-15 78.5zM266 384q29 0 52.5 9.5t40.5 27t26 40.5t9 50t-9.5 50.5t-26 40.5t-40.5 26.5t-52 9.5q-29 0 -52.5 -9.5t-40 -26.5t-26 -40.5t-9.5 -50.5t9 -50t25.5 -40.5t40.5 -27t53 -9.5zM120 186q0 -31 10.5 -57.5t29.5 -45.5t46 -30t60 -11t60 11t46 30
t29.5 45.5t10.5 57.5t-10.5 58t-29.5 46.5t-46 30.5t-60 11t-60 -11t-46 -30.5t-29.5 -46.5t-10.5 -58z" />
    <glyph glyph-name="nine" unicode="9" 
d="M348 304l-2 1q-13 -11 -36 -17.5t-52 -6.5q-41 0 -76 14.5t-60.5 41t-40 63.5t-14.5 83q0 48 15 86t41 65t62.5 41.5t79.5 14.5t80 -14.5t63 -41t41 -64.5t15 -85q0 -41 -12.5 -79.5t-31.5 -73.5l-169 -325q-4 -7 -13 -7h-37q-5 0 -6.5 3t0.5 6zM265 333q65 0 105 42.5
t40 110.5t-40 110t-105 42q-32 0 -58.5 -11t-45.5 -31t-29.5 -48t-10.5 -62t10.5 -62t29.5 -48.5t45.5 -31.5t58.5 -11z" />
    <glyph glyph-name="colon" unicode=":" horiz-adv-x="227" 
d="M89 389q-10 0 -10 10v68q0 10 10 10h49q10 0 10 -10v-68q0 -10 -10 -10h-49zM79 77q0 10 10 10h49q10 0 10 -10v-67q0 -10 -10 -10h-49q-10 0 -10 10v67z" />
    <glyph glyph-name="semicolon" unicode=";" horiz-adv-x="227" 
d="M89 389q-10 0 -10 10v68q0 10 10 10h49q10 0 10 -10v-68q0 -10 -10 -10h-49zM82 77q0 10 10 10h43q10 0 10 -10v-75q0 -8 -1 -12t-4 -10l-39 -77q-4 -8 -12 -8q-7 0 -7 9v173z" />
    <glyph glyph-name="less" unicode="&#x3c;" 
d="M76 250q-10 4 -10 13v26q0 9 10 13l380 155q10 3 10 -7v-35q0 -9 -10 -13l-316 -125v-2l316 -125q10 -4 10 -13v-35q0 -10 -10 -7l-380 155v0z" />
    <glyph glyph-name="equal" unicode="=" 
d="M76 348q-10 0 -10 10v30q0 10 10 10h380q10 0 10 -10v-30q0 -10 -10 -10h-380zM76 154q-10 0 -10 10v30q0 10 10 10h380q10 0 10 -10v-30q0 -10 -10 -10h-380z" />
    <glyph glyph-name="greater" unicode="&#x3e;" 
d="M66 137q0 9 10 13l316 125v2l-316 125q-10 4 -10 13v35q0 10 10 7l380 -155q10 -4 10 -13v-26q0 -9 -10 -13l-380 -155q-10 -3 -10 7v35z" />
    <glyph glyph-name="question" unicode="?" horiz-adv-x="446" 
d="M196 223q0 31 6.5 52.5t25.5 45.5l55 73q19 23 30.5 40.5t18.5 32.5t9.5 28.5t2.5 29.5q0 54 -33.5 83.5t-84.5 29.5q-50 0 -81.5 -29t-42.5 -83q-2 -10 -11 -8l-34 6q-10 2 -8 12q11 68 57 111t121 43q39 0 70.5 -12.5t54 -34t35 -52t12.5 -66.5q0 -41 -14 -72.5
t-47 -71.5l-55 -74q-10 -12 -16.5 -22t-10 -20t-4.5 -21t-1 -25v-35q0 -10 -10 -10h-35q-10 0 -10 10v39zM188 77q0 10 10 10h50q10 0 10 -10v-67q0 -10 -10 -10h-50q-10 0 -10 10v67z" />
    <glyph glyph-name="at" unicode="@" horiz-adv-x="884" 
d="M49 267q0 87 29 159.5t81 124.5t124 80.5t159 28.5t159.5 -29t124.5 -80.5t81 -124t29 -159.5q0 -56 -12 -96t-33 -65.5t-49 -37.5t-60 -12q-42 0 -72.5 21t-44.5 57h-1q-17 -38 -52.5 -58t-84.5 -20q-53 0 -88.5 24.5t-52.5 75.5q-6 20 -9.5 44t-3.5 62t3.5 62t9.5 44
q17 51 52.5 75.5t86.5 24.5q48 0 78 -17t44 -42h2v39q0 10 9 10h30q9 0 9 -10v-245q0 -26 7.5 -45t19.5 -31.5t27.5 -18.5t32.5 -6q20 0 38.5 8t33 27t23 51t8.5 79q0 78 -25 141.5t-70 109.5t-108.5 71t-141.5 25t-141.5 -25t-108.5 -71t-69.5 -109.5t-24.5 -141.5
t24.5 -142t69.5 -110t108.5 -71t141.5 -25q75 0 127 13.5t92 34.5q8 5 13 -4l10 -23q3 -9 -5 -13q-45 -26 -101.5 -40t-135.5 -14q-87 0 -159 29t-124 81t-81 124.5t-29 159.5zM332 174q23 -71 103 -71q81 0 104 71q5 16 7.5 36.5t2.5 51.5t-2.5 51.5t-7.5 36.5
q-23 71 -104 71q-80 0 -103 -71q-5 -16 -7.5 -36.5t-2.5 -51.5t2.5 -51.5t7.5 -36.5z" />
    <glyph glyph-name="A" unicode="A" horiz-adv-x="596" 
d="M269 670q3 10 12 10h36q9 0 12 -10l236 -660q3 -10 -7 -10h-39q-11 0 -13 10l-60 167h-296l-60 -167q-4 -10 -13 -10h-39q-10 0 -7 10zM427 232l-127 356h-3l-128 -356h258z" />
    <glyph glyph-name="B" unicode="B" horiz-adv-x="601" 
d="M94 670q0 10 10 10h228q97 0 147.5 -47.5t50.5 -128.5q0 -63 -28.5 -101t-76.5 -52v-2q19 -4 39.5 -15.5t37.5 -32t28 -49t11 -65.5q0 -88 -54 -137.5t-155 -49.5h-228q-10 0 -10 10v660zM331 373q69 0 105.5 35t36.5 91q0 59 -36.5 93t-105.5 34h-174q-6 0 -6 -6v-241
q0 -6 6 -6h174zM151 60q0 -6 6 -6h179q73 0 110.5 36t37.5 96t-37.5 96.5t-110.5 36.5h-179q-6 0 -6 -6v-253z" />
    <glyph glyph-name="C" unicode="C" horiz-adv-x="556" 
d="M83 142q-4 13 -7.5 28.5t-5.5 38.5t-3.5 54.5t-1.5 76.5t1.5 76.5t3.5 54.5t5.5 38.5t7.5 28.5q26 77 80 114.5t135 37.5q70 0 123 -31.5t82 -94.5q4 -9 -3 -13l-33 -16q-8 -5 -13 4q-23 44 -60.5 70.5t-95.5 26.5q-63 0 -101.5 -28.5t-58.5 -84.5q-3 -10 -6 -24t-5 -35
t-3 -51t-1 -73t1 -73t3 -51t5 -35t6 -24q20 -56 58.5 -84.5t101.5 -28.5q58 0 95.5 26.5t60.5 70.5q5 9 13 4l33 -16q7 -4 3 -13q-29 -63 -82 -94.5t-123 -31.5q-81 0 -135 37.5t-80 114.5z" />
    <glyph glyph-name="D" unicode="D" horiz-adv-x="620" 
d="M94 670q0 10 10 10h213q172 0 217 -138q5 -15 8.5 -31t6 -38.5t3.5 -54.5t1 -78q0 -47 -1 -78.5t-3.5 -54t-6 -38.5t-8.5 -31q-45 -138 -217 -138h-213q-10 0 -10 10v660zM151 60q0 -6 6 -6h152q66 0 109 24.5t61 78.5q4 12 7 26t5 34.5t3 50t1 72.5t-1 72.5t-3 50
t-5 34.5t-7 26q-18 54 -61 78.5t-109 24.5h-152q-6 0 -6 -6v-560z" />
    <glyph glyph-name="E" unicode="E" horiz-adv-x="556" 
d="M94 670q0 10 10 10h389q10 0 10 -10v-34q0 -10 -10 -10h-336q-6 0 -6 -6v-242q0 -6 6 -6h289q10 0 10 -10v-34q0 -10 -10 -10h-289q-6 0 -6 -6v-252q0 -6 6 -6h336q10 0 10 -10v-34q0 -10 -10 -10h-389q-10 0 -10 10v660z" />
    <glyph glyph-name="F" unicode="F" horiz-adv-x="551" 
d="M94 670q0 10 10 10h389q10 0 10 -10v-34q0 -10 -10 -10h-336q-6 0 -6 -6v-249q0 -6 6 -6h289q10 0 10 -10v-34q0 -10 -10 -10h-289q-6 0 -6 -6v-295q0 -10 -10 -10h-37q-10 0 -10 10v660z" />
    <glyph glyph-name="G" unicode="G" horiz-adv-x="609" 
d="M84 143q-4 13 -7.5 28.5t-6 38.5t-4 54.5t-1.5 75.5t1.5 75.5t4 54.5t6 38.5t7.5 28.5q25 76 81.5 114.5t140.5 38.5q42 0 75.5 -9.5t60 -26.5t46 -40t31.5 -50q4 -9 -4 -13l-32 -16q-9 -3 -13 4q-26 47 -65 72t-100 25q-128 0 -166 -115q-3 -10 -6 -23.5t-5.5 -34.5
t-3.5 -51t-1 -72t1 -72t3.5 -51t5.5 -34.5t6 -23.5q38 -115 166 -115q62 0 104.5 28.5t61.5 84.5q7 20 11.5 50.5t4.5 79.5q0 6 -6 6h-154q-10 0 -10 10v33q0 10 10 10h207q10 0 10 -10v-41q0 -51 -5 -89.5t-13 -61.5q-24 -76 -81 -115t-139 -39q-84 0 -140.5 38.5
t-81.5 114.5z" />
    <glyph glyph-name="H" unicode="H" horiz-adv-x="650" 
d="M94 670q0 10 10 10h37q10 0 10 -10v-292q0 -6 6 -6h336q6 0 6 6v292q0 10 10 10h37q10 0 10 -10v-660q0 -10 -10 -10h-37q-10 0 -10 10v302q0 6 -6 6h-336q-6 0 -6 -6v-302q0 -10 -10 -10h-37q-10 0 -10 10v660z" />
    <glyph glyph-name="I" unicode="I" horiz-adv-x="245" 
d="M94 670q0 10 10 10h37q10 0 10 -10v-660q0 -10 -10 -10h-37q-10 0 -10 10v660z" />
    <glyph glyph-name="J" unicode="J" horiz-adv-x="474" 
d="M40 46q-8 7 -1 14l27 25q7 7 15 0q18 -15 46.5 -28t60.5 -13q65 0 103 37.5t38 122.5v466q0 10 10 10h37q10 0 10 -10v-466q0 -110 -54 -162t-145 -52q-45 0 -84 16.5t-63 39.5z" />
    <glyph glyph-name="K" unicode="K" horiz-adv-x="597" 
d="M94 670q0 10 10 10h37q10 0 10 -10v-392l324 393q9 9 17 9h47q5 0 6.5 -3.5t-2.5 -7.5l-215 -257l232 -401q3 -5 1.5 -8t-6.5 -3h-45q-9 0 -15 9l-205 357l-139 -166v-190q0 -10 -10 -10h-37q-10 0 -10 10v660z" />
    <glyph glyph-name="L" unicode="L" horiz-adv-x="530" 
d="M94 670q0 10 10 10h37q10 0 10 -10v-610q0 -6 6 -6h336q10 0 10 -10v-34q0 -10 -10 -10h-389q-10 0 -10 10v660z" />
    <glyph glyph-name="M" unicode="M" horiz-adv-x="755" 
d="M94 670q0 10 10 10h38q11 0 15 -10l221 -487h4l216 487q4 10 14 10h39q10 0 10 -10v-660q0 -10 -10 -10h-37q-10 0 -10 10v532h-3l-196 -431q-3 -6 -6.5 -8.5t-11.5 -2.5h-20q-12 0 -17 11l-196 431h-3v-532q0 -10 -10 -10h-37q-10 0 -10 10v660z" />
    <glyph glyph-name="N" unicode="N" horiz-adv-x="651" 
d="M94 670q0 10 10 10h37q12 0 17 -10l339 -559h3v559q0 10 10 10h37q10 0 10 -10v-660q0 -10 -10 -10h-39q-11 0 -17 10l-336 560h-4v-560q0 -10 -10 -10h-37q-10 0 -10 10v660z" />
    <glyph glyph-name="O" unicode="O" horiz-adv-x="609" 
d="M305 -10q-84 0 -139.5 39t-80.5 114q-5 13 -8.5 29.5t-6 39t-4 53.5t-1.5 75t1.5 75t4 53.5t6 38.5t8.5 30q25 75 80.5 114t139.5 39q83 0 138.5 -39t80.5 -114q4 -14 8 -30t6.5 -38.5t4 -53.5t1.5 -75t-1.5 -75t-4 -53.5t-6.5 -39t-8 -29.5q-25 -75 -80.5 -114
t-138.5 -39zM486 340q0 41 -1.5 71t-3.5 51t-5.5 35t-6.5 24q-38 115 -164 115q-127 0 -165 -115q-3 -10 -6.5 -24t-5.5 -35t-3.5 -51t-1.5 -71t1.5 -71t3.5 -51t5.5 -35t6.5 -24q38 -115 165 -115q126 0 164 115q3 10 6.5 24t5.5 35t3.5 51t1.5 71z" />
    <glyph glyph-name="P" unicode="P" horiz-adv-x="585" 
d="M104 0q-10 0 -10 10v660q0 10 10 10h227q98 0 153.5 -51.5t55.5 -141.5t-55.5 -141t-153.5 -51h-174q-6 0 -6 -6v-279q0 -10 -10 -10h-37zM329 349q75 0 114.5 36t39.5 102t-39.5 102.5t-114.5 36.5h-172q-6 0 -6 -6v-265q0 -6 6 -6h172z" />
    <glyph glyph-name="Q" unicode="Q" horiz-adv-x="609" 
d="M537 -32q-8 -7 -15 0l-66 71q-60 -49 -151 -49q-84 0 -139.5 39t-80.5 114q-5 13 -8.5 29.5t-6 39t-4 53.5t-1.5 75t1.5 75t4 53.5t6 38.5t8.5 30q25 75 80.5 114t139.5 39q83 0 138.5 -39t80.5 -114q4 -14 8 -30t6.5 -38.5t4 -53.5t1.5 -75t-1.5 -75t-4 -53.5t-6.5 -39
t-8 -29.5q-6 -19 -14 -35t-18 -30l70 -73q7 -7 -1 -14zM305 44q69 0 113 36l-82 88q-7 7 0 14l25 23q8 6 14 -1l77 -83q5 9 9 18t8 20q3 10 6.5 24t5.5 35t3.5 51t1.5 71t-1.5 71t-3.5 51t-5.5 35t-6.5 24q-38 115 -164 115q-127 0 -165 -115q-3 -10 -6.5 -24t-5.5 -35
t-3.5 -51t-1.5 -71t1.5 -71t3.5 -51t5.5 -35t6.5 -24q38 -115 165 -115z" />
    <glyph glyph-name="R" unicode="R" horiz-adv-x="615" 
d="M497 0q-8 0 -12 9l-143 295h-10h-175q-6 0 -6 -6v-288q0 -10 -10 -10h-37q-10 0 -10 10v660q0 10 10 10h228q97 0 152 -50t55 -138q0 -71 -36.5 -117.5t-102.5 -62.5l148 -301q3 -5 1.5 -8t-6.5 -3h-46zM331 358q73 0 112 34.5t39 99.5q0 64 -39 99t-112 35h-174
q-6 0 -6 -6v-256q0 -6 6 -6h174z" />
    <glyph glyph-name="S" unicode="S" horiz-adv-x="596" 
d="M290 -10q-33 0 -66 6.5t-62.5 17.5t-54 25.5t-42.5 29.5q-8 7 -1 14l24 30q7 8 14 1q34 -26 84.5 -48t110.5 -22q82 0 129 38t47 101q0 25 -8 46.5t-26.5 38.5t-50 29t-78.5 18l-31 4q-100 13 -148 59t-48 121q0 89 58 140t156 51q57 0 108 -15.5t86 -41.5q9 -5 2 -14
l-20 -31q-6 -7 -14 -2q-41 25 -81 37.5t-84 12.5q-73 0 -113.5 -36.5t-40.5 -96.5q0 -52 36.5 -85t123.5 -44l31 -4q104 -14 151.5 -60.5t47.5 -122.5q0 -43 -15.5 -79t-45.5 -62.5t-75 -41t-104 -14.5z" />
    <glyph glyph-name="T" unicode="T" horiz-adv-x="525" 
d="M244 0q-10 0 -10 10v610q0 6 -6 6h-196q-10 0 -10 10v34q0 10 10 10h461q10 0 10 -10v-34q0 -10 -10 -10h-196q-6 0 -6 -6v-610q0 -10 -10 -10h-37z" />
    <glyph glyph-name="U" unicode="U" horiz-adv-x="635" 
d="M144 234q0 -97 46 -143.5t127 -46.5q82 0 128 46.5t46 143.5v436q0 10 10 10h37q10 0 10 -10v-435q0 -62 -16.5 -108t-46.5 -76.5t-72.5 -45.5t-95.5 -15q-105 0 -167.5 60t-62.5 185v435q0 10 10 10h37q10 0 10 -10v-436z" />
    <glyph glyph-name="V" unicode="V" horiz-adv-x="560" 
d="M263 0q-8 0 -11 10l-225 656q-6 14 7 14h35q11 0 15 -10l197 -575h2l192 575q4 10 14 10h36q13 0 8 -14l-224 -656q-3 -10 -12 -10h-34z" />
    <glyph glyph-name="W" unicode="W" horiz-adv-x="817" 
d="M580 0q-8 0 -11 10l-159 557h-2l-160 -557q-3 -10 -11 -10h-32q-9 0 -12 10l-161 659q-3 11 8 11h36q12 0 13 -10l134 -560h2l157 560q3 10 12 10h30q9 0 12 -10l159 -560h2l131 560q2 10 13 10h36q11 0 8 -11l-161 -659q-2 -10 -11 -10h-33z" />
    <glyph glyph-name="X" unicode="X" horiz-adv-x="545" 
d="M461 0q-9 0 -13 9l-175 291h-1l-176 -291q-5 -9 -13 -9h-45q-11 0 -5 11l207 346l-186 312q-3 5 -1.5 8t6.5 3h45q8 0 13 -9l155 -257h1l155 257q6 9 13 9h45q10 0 5 -11l-187 -312l208 -346q5 -11 -6 -11h-45z" />
    <glyph glyph-name="Y" unicode="Y" horiz-adv-x="515" 
d="M239 0q-10 0 -10 10v269l-204 390q-2 4 0.5 7.5t7.5 3.5h39q10 0 15 -10l171 -325h3l168 325q5 10 15 10h38q6 0 8 -3.5t0 -7.5l-204 -390v-269q0 -10 -10 -10h-37z" />
    <glyph glyph-name="Z" unicode="Z" horiz-adv-x="540" 
d="M63 0q-10 0 -10 10v33q0 7 5 15l361 567v1h-343q-10 0 -10 10v34q0 10 10 10h400q10 0 10 -10v-33q0 -8 -5 -15l-361 -567v-1h356q10 0 10 -10v-34q0 -10 -10 -10h-413z" />
    <glyph glyph-name="bracketleft" unicode="[" horiz-adv-x="283" 
d="M110 -84q-10 0 -10 10v804q0 10 10 10h119q10 0 10 -10v-27q0 -10 -10 -10h-71q-6 0 -6 -6v-718q0 -6 6 -6h71q10 0 10 -10v-27q0 -10 -10 -10h-119z" />
    <glyph glyph-name="backslash" unicode="\" horiz-adv-x="407" 
d="M302 -10q-10 0 -13 10l-221 680q-3 10 7 10h30q10 0 13 -10l221 -680q3 -10 -7 -10h-30z" />
    <glyph glyph-name="bracketright" unicode="]" horiz-adv-x="283" 
d="M54 -84q-10 0 -10 10v27q0 10 10 10h71q6 0 6 6v718q0 6 -6 6h-71q-10 0 -10 10v27q0 10 10 10h119q10 0 10 -10v-804q0 -10 -10 -10h-119z" />
    <glyph glyph-name="asciicircum" unicode="^" 
d="M426 282q-9 0 -13 10l-146 318h-2l-147 -318q-4 -10 -13 -10h-31q-5 0 -7 2.5t0 7.5l173 378q5 10 14 10h24q9 0 14 -10l172 -378q5 -10 -6 -10h-32z" />
    <glyph glyph-name="underscore" unicode="_" horiz-adv-x="459" 
d="M0 -123v41h459v-41h-459z" />
    <glyph glyph-name="grave" unicode="`" horiz-adv-x="421" 
d="M248 558q-6 0 -9.5 2.5t-8.5 7.5l-88 122q-3 4 -1.5 7t6.5 3h38q10 0 16 -10l77 -122q3 -5 1.5 -7.5t-6.5 -2.5h-25z" />
    <glyph glyph-name="a" unicode="a" horiz-adv-x="513" 
d="M250 437q-44 0 -71.5 -9.5t-48.5 -26.5q-9 -7 -15 1l-17 25q-5 8 3 14q26 22 63.5 34t88.5 12q46 0 79 -8t54 -27t31 -49t10 -74v-319q0 -10 -10 -10h-32q-10 0 -10 10v50h-1q-14 -30 -51.5 -50t-96.5 -20q-72 0 -116 35.5t-44 105.5q0 72 46.5 106.5t134.5 34.5h121
q6 0 6 6v49q0 29 -5.5 50t-20 34.5t-38.5 19.5t-60 6zM237 40q62 0 99.5 29t37.5 78v73q0 6 -6 6h-114q-72 0 -103.5 -23t-31.5 -71q0 -45 30.5 -68.5t87.5 -23.5z" />
    <glyph glyph-name="b" unicode="b" horiz-adv-x="531" 
d="M292 -10q-60 0 -94 22t-51 56h-1v-58q0 -10 -10 -10h-34q-10 0 -10 10v660q0 10 10 10h34q10 0 10 -10v-261h1q17 34 51 56t94 22q124 0 162 -114q9 -29 13 -61.5t4 -73.5q0 -40 -4 -72.5t-13 -61.5q-38 -114 -162 -114zM281 42q48 0 78 21.5t44 62.5q8 23 10.5 51.5
t2.5 60.5t-2.5 61t-10.5 52q-14 41 -44 62.5t-78 21.5q-45 0 -76.5 -21t-45.5 -63q-7 -20 -10 -47t-3 -66t3 -65.5t10 -46.5q14 -42 45.5 -63t76.5 -21z" />
    <glyph glyph-name="c" unicode="c" horiz-adv-x="470" 
d="M60 238q0 43 4 72.5t11 52.5q19 59 65.5 91.5t112.5 32.5q57 0 96 -23t65 -67q5 -8 -3 -13l-28 -18q-8 -5 -13 4q-21 33 -48 49t-69 16q-47 0 -79 -22.5t-46 -67.5q-7 -20 -10 -45t-3 -62t3 -61.5t10 -44.5q14 -45 46 -67.5t79 -22.5q42 0 69 16t48 49q5 9 13 4l28 -18
q8 -5 3 -13q-26 -44 -65 -67t-96 -23q-66 0 -112.5 32.5t-65.5 91.5q-7 23 -11 52t-4 72z" />
    <glyph glyph-name="d" unicode="d" horiz-adv-x="531" 
d="M395 0q-10 0 -10 10v58h-1q-17 -34 -51 -56t-94 -22q-126 0 -162 114q-10 29 -13.5 61.5t-3.5 72.5q0 41 3.5 73.5t13.5 61.5q36 114 162 114q60 0 94 -22t51 -56h1v261q0 10 10 10h34q10 0 10 -10v-660q0 -10 -10 -10h-34zM250 42q45 0 76.5 21t45.5 63q7 20 10 46.5
t3 65.5t-3 66t-10 47q-14 42 -45.5 63t-76.5 21q-47 0 -77.5 -21.5t-44.5 -62.5q-8 -23 -10.5 -52t-2.5 -61t2.5 -60.5t10.5 -51.5q14 -41 44.5 -62.5t77.5 -21.5z" />
    <glyph glyph-name="e" unicode="e" horiz-adv-x="502" 
d="M257 -10q-70 0 -116.5 32t-66.5 94q-7 22 -10.5 49.5t-3.5 73.5q0 45 3.5 73.5t10.5 50.5q20 60 66 92t111 32t111.5 -32t66.5 -92q8 -23 11 -50t3 -77q0 -10 -11 -10h-311q-6 0 -6 -7q0 -30 2.5 -48.5t7.5 -35.5q17 -48 51.5 -70.5t83.5 -22.5q47 0 79.5 17.5t53.5 43.5
q6 8 14 2l23 -21q7 -6 1 -14q-26 -35 -70 -57.5t-104 -22.5zM382 272q6 0 6 6q0 22 -2 38.5t-7 30.5q-14 45 -47 67.5t-81 22.5q-47 0 -80 -22.5t-47 -67.5q-5 -14 -7 -30.5t-2 -38.5q0 -6 6 -6h261z" />
    <glyph glyph-name="f" unicode="f" horiz-adv-x="308" 
d="M118 0q-10 0 -10 10v413q0 6 -6 6h-51q-10 0 -10 10v28q0 10 10 10h51q6 0 6 6v51q0 43 7 71t23 44.5t41.5 23.5t61.5 7h28q10 0 10 -10v-32q0 -10 -10 -10h-21q-27 0 -44 -3.5t-26.5 -13t-12.5 -26.5t-3 -44v-58q0 -6 6 -6h101q10 0 10 -10v-28q0 -10 -10 -10h-101
q-6 0 -6 -6v-413q0 -10 -10 -10h-34z" />
    <glyph glyph-name="g" unicode="g" horiz-adv-x="522" 
d="M239 -190q-52 0 -95 20t-63 49q-5 8 2 14l25 22q8 6 14 -2q45 -51 118 -51q64 0 100 33.5t36 111.5v69h-1q-17 -35 -50 -56.5t-91 -21.5q-60 0 -100.5 29.5t-58.5 84.5q-8 26 -12 56.5t-4 73.5t4 73.5t12 56.5q18 55 58.5 85t100.5 30q58 0 91 -21.5t50 -56.5h1v58
q0 10 10 10h34q10 0 10 -10v-458q0 -100 -50.5 -149.5t-140.5 -49.5zM245 49q42 0 73 19.5t46 64.5q7 20 9.5 45.5t2.5 63.5t-2.5 63.5t-9.5 45.5q-15 45 -46 64.5t-73 19.5q-89 0 -117 -83q-8 -21 -11 -47.5t-3 -62.5q0 -71 14 -109q27 -84 117 -84z" />
    <glyph glyph-name="h" unicode="h" horiz-adv-x="541" 
d="M411 0q-10 0 -10 10v282q0 143 -125 143q-55 0 -92.5 -35t-37.5 -98v-292q0 -10 -10 -10h-34q-10 0 -10 10v660q0 10 10 10h34q10 0 10 -10v-260h1q18 35 54 56t87 21q80 0 123.5 -47t43.5 -135v-295q0 -10 -10 -10h-34z" />
    <glyph glyph-name="i" unicode="i" horiz-adv-x="238" 
d="M97 604q-10 0 -10 10v56q0 10 10 10h44q10 0 10 -10v-56q0 -10 -10 -10h-44zM102 0q-10 0 -10 10v457q0 10 10 10h34q10 0 10 -10v-457q0 -10 -10 -10h-34z" />
    <glyph glyph-name="j" unicode="j" horiz-adv-x="238" 
d="M97 604q-10 0 -10 10v56q0 10 10 10h44q10 0 10 -10v-56q0 -10 -10 -10h-44zM12 -180q-10 0 -10 10v32q0 10 10 10h9q40 0 55.5 14.5t15.5 58.5v522q0 10 10 10h34q10 0 10 -10v-521q0 -70 -28.5 -98t-94.5 -28h-11z" />
    <glyph glyph-name="k" unicode="k" horiz-adv-x="500" 
d="M415 0q-9 0 -15 10l-152 247l-102 -120v-127q0 -10 -10 -10h-34q-10 0 -10 10v660q0 10 10 10h34q10 0 10 -10v-458l216 255q5 5 8 7.5t9 2.5h41q5 0 6.5 -3.5t-1.5 -6.5l-141 -167l178 -290q2 -4 0.5 -7t-6.5 -3h-41z" />
    <glyph glyph-name="l" unicode="l" horiz-adv-x="262" 
d="M190 -3q-54 0 -76.5 26t-22.5 86v561q0 10 10 10h34q10 0 10 -10v-559q0 -35 12 -48.5t39 -13.5h17q10 0 10 -10v-32q0 -10 -10 -10h-23z" />
    <glyph glyph-name="m" unicode="m" horiz-adv-x="850" 
d="M720 0q-10 0 -10 10v282q0 143 -126 143q-55 0 -92 -35t-37 -98v-292q0 -10 -10 -10h-34q-10 0 -10 10v282q0 143 -125 143q-55 0 -92.5 -35t-37.5 -98v-292q0 -10 -10 -10h-34q-10 0 -10 10v457q0 10 10 10h34q10 0 10 -10v-57h1q18 35 54 56t87 21q111 0 148 -89h1
q21 42 59.5 65.5t97.5 23.5q81 0 125.5 -47t44.5 -135v-295q0 -10 -10 -10h-34z" />
    <glyph glyph-name="n" unicode="n" horiz-adv-x="541" 
d="M411 0q-10 0 -10 10v282q0 143 -125 143q-55 0 -92.5 -35t-37.5 -98v-292q0 -10 -10 -10h-34q-10 0 -10 10v457q0 10 10 10h34q10 0 10 -10v-57h1q18 35 54 56t87 21q80 0 123.5 -47t43.5 -135v-295q0 -10 -10 -10h-34z" />
    <glyph glyph-name="o" unicode="o" horiz-adv-x="509" 
d="M254 -10q-66 0 -112 32t-66 92q-8 24 -12 52.5t-4 72.5q0 43 4 71.5t12 52.5q20 60 66 92t112 32t112.5 -32t66.5 -92q8 -24 12 -52.5t4 -71.5q0 -44 -4 -72.5t-12 -52.5q-20 -60 -66.5 -92t-112.5 -32zM254 42q47 0 80 23t47 66q7 20 10 44.5t3 63.5q0 38 -3 62.5
t-10 44.5q-14 43 -47 66t-80 23q-46 0 -79 -23t-47 -66q-7 -20 -10 -44.5t-3 -62.5q0 -39 3 -63.5t10 -44.5q14 -43 47 -66t79 -23z" />
    <glyph glyph-name="p" unicode="p" horiz-adv-x="531" 
d="M102 -180q-10 0 -10 10v637q0 10 10 10h34q10 0 10 -10v-58h1q17 34 51 56t94 22q124 0 162 -114q9 -29 13 -61.5t4 -73.5q0 -40 -4 -72.5t-13 -61.5q-38 -114 -162 -114q-60 0 -94 22t-51 56h-1v-238q0 -10 -10 -10h-34zM281 42q48 0 78 21.5t44 62.5q8 23 10.5 51.5
t2.5 60.5t-2.5 61t-10.5 52q-14 41 -44 62.5t-78 21.5q-45 0 -76.5 -21t-45.5 -63q-7 -20 -10 -47t-3 -66t3 -65.5t10 -46.5q14 -42 45.5 -63t76.5 -21z" />
    <glyph glyph-name="q" unicode="q" horiz-adv-x="531" 
d="M395 -180q-10 0 -10 10v238h-1q-17 -34 -51 -56t-94 -22q-125 0 -162 114q-9 29 -13 61.5t-4 72.5q0 41 4 73.5t13 61.5q37 114 162 114q60 0 94 -22t51 -56h1v58q0 10 10 10h34q10 0 10 -10v-637q0 -10 -10 -10h-34zM250 42q45 0 76.5 21t45.5 63q7 20 10 46.5t3 65.5
t-3 66t-10 47q-14 42 -45.5 63t-76.5 21q-48 0 -78 -21.5t-44 -62.5q-8 -23 -10.5 -52t-2.5 -61t2.5 -60.5t10.5 -51.5q14 -41 44 -62.5t78 -21.5z" />
    <glyph glyph-name="r" unicode="r" horiz-adv-x="396" 
d="M102 0q-10 0 -10 10v457q0 10 10 10h34q10 0 10 -10v-61h1q14 35 45.5 58t82.5 23q29 0 54 -9t42 -24q8 -5 2 -13l-20 -28q-5 -7 -15 -2q-17 11 -35 17.5t-41 6.5q-32 0 -54 -13t-35.5 -34.5t-20 -51t-6.5 -62.5v-264q0 -10 -10 -10h-34z" />
    <glyph glyph-name="s" unicode="s" horiz-adv-x="481" 
d="M241 -10q-32 0 -60 6t-51.5 16t-42 21.5t-32.5 23.5q-7 7 0 14l22 25q6 6 14 0q28 -23 67 -39.5t88 -16.5q63 0 93.5 25t30.5 67q0 18 -4.5 32t-17 24.5t-33.5 17t-54 10.5l-48 5q-67 7 -103 38.5t-36 88.5q0 66 44.5 102.5t123.5 36.5q49 0 89.5 -13.5t69.5 -32.5
q8 -6 2 -14l-18 -24q-5 -8 -14 -3q-23 14 -58.5 25.5t-73.5 11.5q-55 0 -83 -22.5t-28 -62.5q0 -35 24.5 -54.5t85.5 -25.5l48 -5q70 -7 104 -39.5t34 -88.5q0 -69 -46.5 -109t-136.5 -40z" />
    <glyph glyph-name="t" unicode="t" horiz-adv-x="311" 
d="M229 -3q-68 0 -96 29t-28 100v297q0 6 -6 6h-50q-10 0 -10 10v28q0 10 10 10h50q6 0 6 6v137q0 10 10 10h34q10 0 10 -10v-137q0 -6 6 -6h90q10 0 10 -10v-28q0 -10 -10 -10h-90q-6 0 -6 -6v-294q0 -48 17.5 -64t59.5 -16h19q10 0 10 -10v-32q0 -10 -10 -10h-26z" />
    <glyph glyph-name="u" unicode="u" horiz-adv-x="535" 
d="M399 0q-10 0 -10 10v56h-1q-18 -35 -54 -55.5t-85 -20.5q-80 0 -122.5 47t-42.5 134v296q0 10 10 10h34q10 0 10 -10v-282q0 -143 123 -143q27 0 50.5 9t40.5 26.5t27 42t10 55.5v292q0 10 10 10h34q10 0 10 -10v-457q0 -10 -10 -10h-34z" />
    <glyph glyph-name="v" unicode="v" horiz-adv-x="468" 
d="M218 0q-9 0 -12 10l-173 457q-3 10 8 10h37q9 0 13 -10l144 -382h1l141 382q4 10 13 10h37q11 0 8 -10l-173 -457q-3 -10 -12 -10h-32z" />
    <glyph glyph-name="w" unicode="w" horiz-adv-x="736" 
d="M505 0q-9 0 -12 10l-124 381h-1l-126 -381q-3 -10 -12 -10h-30q-9 0 -12 10l-149 457q-3 10 7 10h36q9 0 13 -10l122 -381h1l124 381q3 10 12 10h29q9 0 12 -10l126 -381h1l119 381q4 10 13 10h36q10 0 7 -10l-149 -457q-3 -10 -12 -10h-31z" />
    <glyph glyph-name="x" unicode="x" horiz-adv-x="463" 
d="M378 0q-9 0 -14 8l-132 194h-1l-133 -194q-5 -8 -14 -8h-40q-5 0 -6.5 3t0.5 7l163 240l-147 217q-2 4 -0.5 7t6.5 3h41q9 0 14 -8l116 -172h1l117 172q5 8 14 8h40q5 0 6.5 -3t-0.5 -7l-148 -217l164 -240q2 -4 0.5 -7t-6.5 -3h-41z" />
    <glyph glyph-name="y" unicode="y" horiz-adv-x="467" 
d="M82 -180q-10 0 -10 10v32q0 10 10 10h18q15 0 27.5 4t23 13.5t20 27t19.5 44.5l19 49l-176 457q-3 10 7 10h38q9 0 13 -10l145 -383h1l141 383q3 10 12 10h38q10 0 7 -10l-195 -513q-15 -41 -30 -67t-31 -41t-34.5 -20.5t-41.5 -5.5h-21z" />
    <glyph glyph-name="z" unicode="z" horiz-adv-x="467" 
d="M68 0q-10 0 -10 10v30q0 7 5 13l283 371v1h-265q-10 0 -10 10v32q0 10 10 10h320q10 0 10 -10v-32q0 -7 -5 -13l-282 -369v-2h277q10 0 10 -10v-31q0 -10 -10 -10h-333z" />
    <glyph glyph-name="braceleft" unicode="{" horiz-adv-x="318" 
d="M230 -84q-48 0 -70 24.5t-22 80.5v199q0 47 -15.5 64.5t-41.5 19.5q-10 2 -10 10v32q0 8 10 10q26 2 41.5 19.5t15.5 64.5v195q0 56 22 80.5t70 24.5h34q10 0 10 -10v-27q0 -10 -10 -10h-26q-25 0 -37 -13t-12 -43v-191q0 -57 -12 -81t-39 -34v-2q13 -5 23 -13t16 -21
t9 -32.5t3 -48.5v-195q0 -30 12 -43t37 -13h26q10 0 10 -10v-27q0 -10 -10 -10h-34z" />
    <glyph glyph-name="bar" unicode="|" horiz-adv-x="246" 
d="M109 -84q-10 0 -10 10v804q0 10 10 10h28q10 0 10 -10v-804q0 -10 -10 -10h-28z" />
    <glyph glyph-name="braceright" unicode="}" horiz-adv-x="318" 
d="M54 -84q-10 0 -10 10v27q0 10 10 10h26q25 0 37 13t12 43v195q0 29 3 48.5t9 32.5t15.5 21t23.5 13v2q-27 10 -39 34t-12 81v191q0 30 -12 43t-37 13h-26q-10 0 -10 10v27q0 10 10 10h34q48 0 70 -24.5t22 -80.5v-195q0 -47 15.5 -64.5t41.5 -19.5q10 -2 10 -10v-32
q0 -8 -10 -10q-26 -2 -41.5 -19.5t-15.5 -64.5v-199q0 -56 -22 -80.5t-70 -24.5h-34z" />
    <glyph glyph-name="asciitilde" unicode="~" 
d="M351 216q-31 0 -54.5 12.5t-43.5 26.5q-17 12 -35.5 22t-38.5 10q-26 0 -44.5 -13.5t-36.5 -43.5q-5 -8 -14 -2l-20 13q-7 5 -3 14q19 37 50 58t69 21q32 0 55 -12.5t43 -26.5q17 -12 35.5 -22t38.5 -10q26 0 44.5 14t36.5 43q5 9 15 2l19 -12q8 -5 3 -14
q-19 -37 -50 -58.5t-69 -21.5z" />
    <glyph glyph-name="exclamdown" unicode="&#xa1;" horiz-adv-x="266" 
d="M144 300q10 0 10 -10l8 -483q0 -10 -10 -10h-39q-10 0 -10 10l8 483q0 10 10 10h23zM168 400q0 -10 -10 -10h-50q-10 0 -10 10v67q0 10 10 10h50q10 0 10 -10v-67z" />
    <glyph glyph-name="cent" unicode="&#xa2;" 
d="M296 487q54 -3 91 -26t59 -63q5 -8 -3 -14l-24 -20q-3 -3 -7.5 -2t-6.5 5q-20 33 -44.5 49.5t-64.5 18.5v-393q40 2 64.5 19t44.5 49q2 4 6.5 5t7.5 -2l24 -20q7 -7 3 -15q-22 -37 -59 -61t-91 -27v-82q0 -10 -10 -10h-18q-10 0 -10 10v84q-59 5 -98.5 36.5t-56.5 85.5
q-7 22 -11.5 52t-4.5 72q0 43 4.5 72.5t11.5 52.5q17 53 56.5 85t98.5 37v83q0 10 10 10h18q10 0 10 -10v-81zM142 238q0 -36 3.5 -61.5t10.5 -45.5q24 -77 102 -88v390q-78 -11 -102 -88q-7 -20 -10.5 -45t-3.5 -62z" />
    <glyph glyph-name="sterling" unicode="&#xa3;" 
d="M112 0q-10 0 -10 10v31q0 6 5 11q12 12 19.5 22t12 21t6 25t1.5 34v137q0 6 -6 6h-50q-10 0 -10 10v27q0 10 10 10h50q6 0 6 6v169q0 83 41.5 127t110.5 44q59 0 96 -33t50 -87q1 -9 -8 -12l-32 -9q-10 -3 -12 7q-9 39 -33.5 60.5t-61.5 21.5q-42 0 -69 -27t-27 -85v-176
q0 -6 6 -6h136q10 0 10 -10v-27q0 -10 -10 -10h-136q-6 0 -6 -6v-131q0 -38 -7.5 -62.5t-24.5 -44.5v-1h271q10 0 10 -10v-32q0 -10 -10 -10h-328z" />
    <glyph glyph-name="currency" unicode="&#xa4;" 
d="M462 106q-8 -6 -14 0l-65 65q-24 -18 -53.5 -28t-62.5 -10q-34 0 -63.5 10t-53.5 28l-64 -64q-7 -7 -14 0l-20 22q-7 7 0 14l63 63q-37 49 -37 117q0 34 10 63.5t28 53.5l-64 64q-7 7 0 14l20 22q7 7 14 0l65 -65q23 18 52.5 28t63.5 10q33 0 62 -10t53 -28l65 65
q8 8 14 0l20 -22q8 -8 0 -14l-64 -64q18 -24 28 -53.5t10 -63.5t-10 -63.5t-27 -52.5l64 -64q6 -8 0 -14zM267 180q30 0 55.5 11t44 30.5t29 45.5t10.5 56t-10.5 56t-29 45.5t-44 30.5t-55.5 11t-56 -11t-44.5 -30.5t-29 -45.5t-10.5 -56t10.5 -56t29 -45.5t44.5 -30.5
t56 -11z" />
    <glyph glyph-name="yen" unicode="&#xa5;" 
d="M249 0q-10 0 -10 10v145q0 6 -6 6h-132q-10 0 -10 10v25q0 10 10 10h132q6 0 6 6v60q0 6 -6 6h-132q-10 0 -10 10v25q0 10 10 10h120v1l-161 343q-2 5 0 9t8 4h35q11 0 15 -10l148 -327h2l147 327q4 10 15 10h34q6 0 8 -4t0 -9l-161 -343v-1h120q10 0 10 -10v-25
q0 -10 -10 -10h-132q-6 0 -6 -6v-60q0 -6 6 -6h132q10 0 10 -10v-25q0 -10 -10 -10h-132q-6 0 -6 -6v-145q0 -10 -10 -10h-34z" />
    <glyph glyph-name="brokenbar" unicode="&#xa6;" horiz-adv-x="246" 
d="M109 388q-10 0 -10 10v332q0 10 10 10h28q10 0 10 -10v-332q0 -10 -10 -10h-28zM109 -84q-10 0 -10 10v336q0 10 10 10h28q10 0 10 -10v-336q0 -10 -10 -10h-28z" />
    <glyph glyph-name="section" unicode="&#xa7;" horiz-adv-x="530" 
d="M262 -190q-73 0 -115 38.5t-44 107.5q0 10 8 11l32 7q9 3 11 -7q0 -29 8.5 -49.5t23 -33.5t34 -19t42.5 -6q48 0 78 25t30 76q0 48 -31.5 74t-106.5 41q-74 15 -107 60.5t-33 117.5q0 28 6.5 54t20 47.5t34 37.5t48.5 24v1q-45 22 -66 51.5t-21 79.5q0 31 11.5 57
t31.5 45t48.5 29.5t61.5 10.5q37 0 65 -11t46.5 -30t28.5 -43t10 -51q0 -10 -7 -11l-32 -7q-10 -3 -10 7q-2 45 -27 71t-73 26q-47 0 -74 -24t-27 -69q0 -47 28.5 -74t102.5 -43q140 -32 140 -178q0 -59 -26.5 -102.5t-79.5 -60.5v-1q39 -16 64.5 -46t25.5 -85
q0 -35 -12.5 -62.5t-34 -46.5t-50.5 -29t-63 -10zM265 124q53 0 87 33t34 96t-34 95.5t-87 32.5q-54 0 -87.5 -32.5t-33.5 -95.5t33.5 -96t87.5 -33z" />
    <glyph glyph-name="dieresis" unicode="&#xa8;" horiz-adv-x="421" 
d="M290 604q-10 0 -10 10v56q0 10 10 10h40q10 0 10 -10v-56q0 -10 -10 -10h-40zM91 604q-10 0 -10 10v56q0 10 10 10h40q10 0 10 -10v-56q0 -10 -10 -10h-40z" />
    <glyph glyph-name="copyright" unicode="&#xa9;" horiz-adv-x="830" 
d="M415 -10q-75 0 -139 26.5t-111 73.5t-73.5 111t-26.5 139t26.5 139t73.5 111t111 73.5t139 26.5t139 -26.5t111 -73.5t73.5 -111t26.5 -139t-26.5 -139t-73.5 -111t-111 -73.5t-139 -26.5zM415 32q66 0 122 23.5t97 64.5t64.5 97.5t23.5 122.5t-23.5 122.5t-64.5 97.5
t-97 64.5t-122 23.5t-122 -23.5t-97 -64.5t-64.5 -97.5t-23.5 -122.5t23.5 -122.5t64.5 -97.5t97 -64.5t122 -23.5zM422 144q-53 0 -90.5 25.5t-53.5 76.5q-5 16 -8 36t-3 58t3 58t8 36q16 51 53.5 76.5t90.5 25.5q47 0 80 -20t51 -50q5 -8 -4 -13l-17 -16q-8 -3 -14 3
q-16 24 -38 38.5t-58 14.5q-77 0 -101 -72q-5 -14 -7 -30.5t-2 -50.5t2 -50.5t7 -30.5q24 -72 101 -72q36 0 58 14.5t38 38.5q6 6 14 3l17 -16q9 -5 4 -13q-18 -30 -51 -50t-80 -20z" />
    <glyph glyph-name="ordfeminine" unicode="&#xaa;" horiz-adv-x="340" 
d="M251 392q-10 0 -10 10v20h-2q-11 -17 -34.5 -26.5t-58.5 -9.5q-44 0 -72.5 22t-28.5 64q0 47 31.5 69t88.5 22h69q6 0 6 6v20q0 30 -15.5 43t-60.5 13q-26 0 -43.5 -5t-31.5 -14q-8 -7 -14 1l-10 19q-6 9 2 14q16 12 41 19.5t60 7.5q65 0 91 -21.5t26 -75.5v-188
q0 -10 -10 -10h-24zM158 426q36 0 59 15.5t23 38.5v39q0 6 -6 6h-65q-79 0 -79 -49q0 -24 18 -37t50 -13z" />
    <glyph glyph-name="guillemotleft" unicode="&#xab;" horiz-adv-x="528" 
d="M271 257q-7 7 0 14l171 176q3 3 6.5 2t3.5 -6v-45q0 -6 -1 -9.5t-6 -8.5l-111 -112q-4 -4 0 -8l111 -112q5 -5 6 -8.5t1 -9.5v-45q0 -5 -3.5 -6t-6.5 2zM69 257q-7 7 0 14l171 176q3 3 6.5 2t3.5 -6v-45q0 -6 -1 -9.5t-6 -8.5l-111 -112q-4 -4 0 -8l111 -112q7 -7 7 -18
v-45q0 -5 -3.5 -6t-6.5 2z" />
    <glyph glyph-name="logicalnot" unicode="&#xac;" 
d="M424 117q-10 0 -10 10v118q0 6 -6 6h-332q-10 0 -10 10v30q0 10 10 10h380q10 0 10 -10v-164q0 -10 -10 -10h-32z" />
    <glyph glyph-name="registered" unicode="&#xae;" horiz-adv-x="459" 
d="M230 300q-41 0 -76.5 14.5t-61.5 40.5t-40.5 61.5t-14.5 76.5t14.5 76t40.5 61t61.5 40.5t76.5 14.5t76 -14.5t61 -40.5t40.5 -61t14.5 -76t-14.5 -76.5t-40.5 -61.5t-61 -40.5t-76 -14.5zM230 329q34 0 64 12.5t51.5 34t34 51.5t12.5 66q0 35 -12.5 65t-34 51.5
t-51.5 34t-64 12.5q-35 0 -65 -12.5t-52 -34t-34 -51.5t-12 -65q0 -36 12 -66t34 -51.5t52 -34t65 -12.5zM166 386q-9 0 -9 9v198q0 9 9 9h79q32 0 50 -17t18 -46q0 -22 -10.5 -37.5t-31.5 -21.5l42 -84q3 -5 1 -7.5t-7 -2.5h-17q-4 0 -6 2.5t-4 4.5l-42 83h-45q-3 0 -3 -2
v-79q0 -9 -9 -9h-15zM244 506q38 0 38 33q0 34 -38 34h-51q-3 0 -3 -2v-63q0 -2 3 -2h51z" />
    <glyph glyph-name="macron" unicode="&#xaf;" horiz-adv-x="421" 
d="M90 618q-10 0 -10 10v26q0 10 10 10h240q10 0 10 -10v-26q0 -10 -10 -10h-240z" />
    <glyph glyph-name="degree" unicode="&#xb0;" horiz-adv-x="448" 
d="M223 401q-30 0 -56 11t-45 30t-30 45t-11 57t11 57t30 45t45 30t56 11q31 0 57 -11t45 -30t30 -45t11 -57t-11 -57t-30 -45t-45 -30t-57 -11zM223 439q45 0 73.5 30t28.5 75q0 22 -7.5 41t-21 33.5t-32.5 22.5t-41 8q-45 0 -73 -30t-28 -75t28 -75t73 -30z" />
    <glyph glyph-name="plusminus" unicode="&#xb1;" 
d="M250 108q-10 0 -10 10v160q0 6 -6 6h-158q-10 0 -10 10v30q0 10 10 10h158q6 0 6 6v160q0 10 10 10h32q10 0 10 -10v-160q0 -6 6 -6h158q10 0 10 -10v-30q0 -10 -10 -10h-158q-6 0 -6 -6v-160q0 -10 -10 -10h-32zM76 0q-10 0 -10 10v30q0 10 10 10h380q10 0 10 -10v-30
q0 -10 -10 -10h-380z" />
    <glyph glyph-name="twosuperior" unicode="&#xb2;" horiz-adv-x="331" 
d="M53 430q-10 0 -10 10v23q0 6 6 14l156 181q16 18 25 36.5t9 37.5q0 29 -19 48.5t-51 19.5q-30 0 -49 -16t-26 -44q-2 -10 -12 -8l-23 5q-10 2 -9 12q3 18 12.5 34.5t24.5 30t35.5 21.5t46.5 8q56 0 86 -32.5t30 -78.5q0 -28 -11 -51.5t-33 -49.5l-137 -156v-2h174
q10 0 10 -10v-23q0 -10 -10 -10h-225z" />
    <glyph glyph-name="threesuperior" unicode="&#xb3;" horiz-adv-x="331" 
d="M166 423q-51 0 -82.5 23.5t-42.5 59.5q-3 9 6 12l25 7q8 3 12 -6q9 -21 29 -37t52 -16q36 0 57.5 21.5t21.5 54.5t-22 55t-59 22h-18q-10 0 -10 10v23q0 10 10 10h15q34 0 54.5 19t20.5 51q0 30 -19 49t-54 19q-32 0 -48.5 -14t-24.5 -33q-3 -9 -11 -8l-23 6q-10 2 -8 11
q8 32 36.5 56.5t79.5 24.5q55 0 86.5 -30.5t31.5 -78.5q0 -32 -15.5 -54t-36.5 -36v-1q10 -4 21 -12.5t20 -21t14.5 -29t5.5 -37.5q0 -53 -34 -86.5t-90 -33.5z" />
    <glyph glyph-name="acute" unicode="&#xb4;" horiz-adv-x="421" 
d="M148 558q-11 0 -6 10l77 122q6 10 17 10h38q5 0 6.5 -3t-1.5 -7l-88 -122q-5 -5 -8.5 -7.5t-9.5 -2.5h-25z" />
    <glyph glyph-name="micron" unicode="&#xb5;" horiz-adv-x="544" 
d="M407 0q-10 0 -10 10v57h-1q-16 -35 -51 -56t-83 -21q-40 0 -68.5 12t-45.5 39h-2v-211q0 -10 -10 -10h-34q-10 0 -10 10v637q0 10 10 10h34q10 0 10 -10v-292q0 -65 31 -99t92 -34q55 0 91.5 35t36.5 98v292q0 10 10 10h35q10 0 10 -10v-457q0 -10 -10 -10h-35z" />
    <glyph glyph-name="paragraph" unicode="&#xb6;" horiz-adv-x="570" 
d="M440 -180q-10 0 -10 10v794q0 6 -6 6h-96q-6 0 -6 -6v-794q0 -10 -10 -10h-31q-10 0 -10 10v436q-45 3 -81 19.5t-60.5 44t-38 64t-13.5 79.5t14 81t42 66t69 44t95 16h173q10 0 10 -10v-840q0 -10 -10 -10h-31z" />
    <glyph glyph-name="periodcentered" unicode="&#xb7;" horiz-adv-x="219" 
d="M85 222q-10 0 -10 10v67q0 10 10 10h49q10 0 10 -10v-67q0 -10 -10 -10h-49z" />
    <glyph glyph-name="cedilla" unicode="&#xb8;" horiz-adv-x="421" 
d="M169 -148q-10 0 -7 10l54 138q4 10 13 10h26q10 0 7 -10l-46 -138q-4 -10 -16 -10h-31z" />
    <glyph glyph-name="onesuperior" unicode="&#xb9;" horiz-adv-x="331" 
d="M170 430q-10 0 -10 10v339h-1l-69 -47q-4 -2 -7 -1t-3 6v32q0 10 7 14l68 47q9 6 16 6h25q10 0 10 -10v-386q0 -10 -10 -10h-26z" />
    <glyph glyph-name="ordmasculine" unicode="&#xba;" horiz-adv-x="346" 
d="M173 385q-92 0 -119 80q-5 14 -7.5 30.5t-2.5 40.5t2.5 40.5t7.5 30.5q27 80 119 80t119 -80q5 -14 7.5 -30.5t2.5 -40.5t-2.5 -40.5t-7.5 -30.5q-27 -80 -119 -80zM173 428q57 0 73 52q4 11 6 24t2 32t-2 32t-6 24q-16 52 -73 52t-73 -52q-4 -11 -6 -24t-2 -32t2 -32
t6 -24q16 -52 73 -52z" />
    <glyph glyph-name="guillemotright" unicode="&#xbb;" horiz-adv-x="528" 
d="M288 81q-3 -3 -6.5 -2t-3.5 6v45q0 11 7 18l111 112q4 4 0 8l-111 112q-5 5 -6 8.5t-1 9.5v45q0 5 3.5 6t6.5 -2l171 -176q7 -7 0 -14zM86 81q-3 -3 -6.5 -2t-3.5 6v45q0 11 7 18l111 112q4 4 0 8l-111 112q-5 5 -6 8.5t-1 9.5v45q0 5 3.5 6t6.5 -2l171 -176q7 -7 0 -14z
" />
    <glyph glyph-name="onequarter" unicode="&#xbc;" horiz-adv-x="828" 
d="M188 274q-10 0 -10 10v339h-1l-69 -47q-4 -2 -7 -1t-3 6v32q0 10 7 14l68 47q9 6 16 6h25q10 0 10 -10v-386q0 -10 -10 -10h-26zM644 0q-10 0 -10 10v60q0 6 -6 6h-161q-10 0 -10 10v22q0 8 4 16l133 272q4 10 13 10h29q5 0 6.5 -3t-0.5 -7l-133 -276v-1h119q6 0 6 6v98
q0 10 10 10h25q10 0 10 -10v-98q0 -6 6 -6h36q10 0 10 -10v-23q0 -10 -10 -10h-36q-6 0 -6 -6v-60q0 -10 -10 -10h-25zM185 -10q-11 0 -6 10l394 680q6 10 14 10h27q11 0 6 -10l-394 -680q-6 -10 -14 -10h-27z" />
    <glyph glyph-name="onehalf" unicode="&#xbd;" horiz-adv-x="859" 
d="M188 274q-10 0 -10 10v339h-1l-69 -47q-4 -2 -7 -1t-3 6v32q0 10 7 14l68 47q9 6 16 6h25q10 0 10 -10v-386q0 -10 -10 -10h-26zM526 0q-10 0 -10 10v23q0 6 6 14l156 181q16 18 25 36.5t9 37.5q0 29 -19 48.5t-51 19.5q-30 0 -49 -16t-26 -44q-2 -10 -12 -8l-23 5
q-10 2 -9 12q3 18 12.5 34.5t24.5 30t35.5 21.5t46.5 8q56 0 86 -32.5t30 -78.5q0 -28 -11 -51.5t-33 -49.5l-137 -156v-2h174q10 0 10 -10v-23q0 -10 -10 -10h-225zM185 -10q-11 0 -6 10l394 680q6 10 14 10h27q11 0 6 -10l-394 -680q-6 -10 -14 -10h-27z" />
    <glyph glyph-name="threequarters" unicode="&#xbe;" horiz-adv-x="897" 
d="M712 0q-10 0 -10 10v60q0 6 -6 6h-161q-10 0 -10 10v22q0 8 4 16l133 272q4 10 13 10h29q5 0 6.5 -3t-0.5 -7l-133 -276v-1h119q6 0 6 6v98q0 10 10 10h25q10 0 10 -10v-98q0 -6 6 -6h36q10 0 10 -10v-23q0 -10 -10 -10h-36q-6 0 -6 -6v-60q0 -10 -10 -10h-25zM254 -10
q-11 0 -6 10l394 680q6 10 14 10h27q11 0 6 -10l-394 -680q-6 -10 -14 -10h-27zM223 267q-51 0 -82.5 23.5t-42.5 59.5q-3 9 6 12l25 7q8 3 12 -6q9 -21 29 -37t52 -16q36 0 57.5 21.5t21.5 54.5t-22 55t-59 22h-18q-10 0 -10 10v23q0 10 10 10h15q34 0 54.5 19t20.5 51
q0 30 -19 49t-54 19q-32 0 -48.5 -14t-24.5 -33q-3 -9 -11 -8l-23 6q-10 2 -8 11q8 32 36.5 56.5t79.5 24.5q55 0 86.5 -30.5t31.5 -78.5q0 -32 -15.5 -54t-36.5 -36v-1q10 -4 21 -12.5t20 -21t14.5 -29t5.5 -37.5q0 -53 -34 -86.5t-90 -33.5z" />
    <glyph glyph-name="questiondown" unicode="&#xbf;" horiz-adv-x="446" 
d="M253 254q0 -31 -6.5 -52.5t-25.5 -45.5l-55 -73q-19 -23 -31 -40.5t-18.5 -32.5t-9 -28.5t-2.5 -29.5q0 -54 33.5 -83.5t84.5 -29.5q50 0 81.5 29t42.5 83q2 10 11 8l34 -6q10 -2 8 -12q-11 -68 -57 -111t-121 -43q-39 0 -70.5 12.5t-54 34t-35 52t-12.5 66.5
q0 41 14 72.5t47 71.5l55 74q10 12 16.5 22t10 20t4.5 21t1 25v35q0 10 10 10h35q10 0 10 -10v-39zM261 400q0 -10 -10 -10h-50q-10 0 -10 10v67q0 10 10 10h50q10 0 10 -10v-67z" />
    <glyph glyph-name="Agrave" unicode="&#xc0;" horiz-adv-x="596" 
d="M269 670q3 10 12 10h36q9 0 12 -10l236 -660q3 -10 -7 -10h-39q-11 0 -13 10l-60 167h-296l-60 -167q-4 -10 -13 -10h-39q-10 0 -7 10zM427 232l-127 356h-3l-128 -356h258zM285 764q-6 0 -9.5 1.5t-8.5 7.5l-96 105q-3 4 -2 7t6 3h40q11 0 18 -10l82 -104q4 -5 2.5 -7.5
t-6.5 -2.5h-26z" />
    <glyph glyph-name="Aacute" unicode="&#xc1;" horiz-adv-x="596" 
d="M269 670q3 10 12 10h36q9 0 12 -10l236 -660q3 -10 -7 -10h-39q-11 0 -13 10l-60 167h-296l-60 -167q-4 -10 -13 -10h-39q-10 0 -7 10zM427 232l-127 356h-3l-128 -356h258zM288 764q-5 0 -6.5 2.5t2.5 7.5l82 104q7 10 18 10h40q5 0 6 -3t-2 -7l-96 -105
q-5 -6 -8.5 -7.5t-9.5 -1.5h-26z" />
    <glyph glyph-name="Acircumflex" unicode="&#xc2;" horiz-adv-x="596" 
d="M269 670q3 10 12 10h36q9 0 12 -10l236 -660q3 -10 -7 -10h-39q-11 0 -13 10l-60 167h-296l-60 -167q-4 -10 -13 -10h-39q-10 0 -7 10zM427 232l-127 356h-3l-128 -356h258zM386 754q-10 0 -17 10l-71 85h-2l-70 -85q-9 -10 -17 -10h-25q-5 0 -6 3t2 7l90 123q6 9 16 9
h23q9 0 15 -9l91 -123q3 -4 2 -7t-6 -3h-25z" />
    <glyph glyph-name="Atilde" unicode="&#xc3;" horiz-adv-x="596" 
d="M269 670q3 10 12 10h36q9 0 12 -10l236 -660q3 -10 -7 -10h-39q-11 0 -13 10l-60 167h-296l-60 -167q-4 -10 -13 -10h-39q-10 0 -7 10zM427 232l-127 356h-3l-128 -356h258zM350 782q-18 0 -32 6.5t-28 14.5q-12 8 -23.5 13t-25.5 5q-17 0 -30.5 -9.5t-27.5 -23.5
q-9 -7 -9 3v30q0 7 8 15q12 14 27 22t34 8q18 0 32.5 -6t27.5 -14q12 -8 23.5 -13t25.5 -5q17 0 31 9t28 24q3 3 5.5 2t2.5 -5v-30q0 -5 -1 -8t-6 -8q-13 -13 -28 -21.5t-34 -8.5z" />
    <glyph glyph-name="Adieresis" unicode="&#xc4;" horiz-adv-x="596" 
d="M269 670q3 10 12 10h36q9 0 12 -10l236 -660q3 -10 -7 -10h-39q-11 0 -13 10l-60 167h-296l-60 -167q-4 -10 -13 -10h-39q-10 0 -7 10zM427 232l-127 356h-3l-128 -356h258zM378 786q-10 0 -10 10v56q0 10 10 10h39q10 0 10 -10v-56q0 -10 -10 -10h-39zM178 786
q-10 0 -10 10v56q0 10 10 10h39q10 0 10 -10v-56q0 -10 -10 -10h-39z" />
    <glyph glyph-name="Aring" unicode="&#xc5;" horiz-adv-x="596" 
d="M269 670q3 10 12 10h36q9 0 12 -10l236 -660q3 -10 -7 -10h-39q-11 0 -13 10l-60 167h-296l-60 -167q-4 -10 -13 -10h-39q-10 0 -7 10zM427 232l-127 356h-3l-128 -356h258zM385 826q0 -38 -25 -63t-63 -25t-63 25t-25 63t25 63t63 25t63 -25t25 -63zM350 826
q0 24 -14.5 40t-38.5 16t-38.5 -16t-14.5 -40t14.5 -40t38.5 -16t38.5 16t14.5 40z" />
    <glyph glyph-name="AE" unicode="&#xc6;" horiz-adv-x="941" 
d="M489 0q-10 0 -10 10v161q0 6 -6 6h-273l-104 -167q-5 -10 -14 -10h-44q-5 0 -6.5 3t0.5 7l407 661q6 9 15 9h424q10 0 10 -10v-34q0 -10 -10 -10h-336q-6 0 -6 -6v-242q0 -6 6 -6h289q10 0 10 -10v-34q0 -10 -10 -10h-289q-6 0 -6 -6v-252q0 -6 6 -6h336q10 0 10 -10v-34
q0 -10 -10 -10h-389zM234 232h239q6 0 6 6v387h-2z" />
    <glyph glyph-name="Ccedilla" unicode="&#xc7;" horiz-adv-x="556" 
d="M231 -148q-10 0 -7 10l50 129q-69 5 -118 42t-73 109q-4 13 -7.5 28.5t-5.5 38.5t-3.5 54.5t-1.5 76.5t1.5 76.5t3.5 54.5t5.5 38.5t7.5 28.5q26 77 80 114.5t135 37.5q70 0 123 -31.5t82 -94.5q4 -9 -3 -13l-33 -16q-8 -5 -13 4q-23 44 -60.5 70.5t-95.5 26.5
q-63 0 -101.5 -28.5t-58.5 -84.5q-3 -10 -6 -24t-5 -35t-3 -51t-1 -73t1 -73t3 -51t5 -35t6 -24q20 -56 58.5 -84.5t101.5 -28.5q58 0 95.5 26.5t60.5 70.5q5 9 13 4l33 -16q7 -4 3 -13q-26 -57 -72.5 -88t-109.5 -37l-43 -129q-4 -10 -16 -10h-31z" />
    <glyph glyph-name="Egrave" unicode="&#xc8;" horiz-adv-x="556" 
d="M302 764q-6 0 -9.5 1.5t-8.5 7.5l-96 105q-3 4 -2 7t6 3h40q11 0 18 -10l82 -104q4 -5 2.5 -7.5t-6.5 -2.5h-26zM94 670q0 10 10 10h389q10 0 10 -10v-34q0 -10 -10 -10h-336q-6 0 -6 -6v-242q0 -6 6 -6h289q10 0 10 -10v-34q0 -10 -10 -10h-289q-6 0 -6 -6v-252
q0 -6 6 -6h336q10 0 10 -10v-34q0 -10 -10 -10h-389q-10 0 -10 10v660z" />
    <glyph glyph-name="Eacute" unicode="&#xc9;" horiz-adv-x="556" 
d="M257 764q-5 0 -6.5 2.5t2.5 7.5l82 104q7 10 18 10h40q5 0 6 -3t-2 -7l-96 -105q-5 -6 -8.5 -7.5t-9.5 -1.5h-26zM94 670q0 10 10 10h389q10 0 10 -10v-34q0 -10 -10 -10h-336q-6 0 -6 -6v-242q0 -6 6 -6h289q10 0 10 -10v-34q0 -10 -10 -10h-289q-6 0 -6 -6v-252
q0 -6 6 -6h336q10 0 10 -10v-34q0 -10 -10 -10h-389q-10 0 -10 10v660z" />
    <glyph glyph-name="Ecircumflex" unicode="&#xca;" horiz-adv-x="556" 
d="M94 670q0 10 10 10h389q10 0 10 -10v-34q0 -10 -10 -10h-336q-6 0 -6 -6v-242q0 -6 6 -6h289q10 0 10 -10v-34q0 -10 -10 -10h-289q-6 0 -6 -6v-252q0 -6 6 -6h336q10 0 10 -10v-34q0 -10 -10 -10h-389q-10 0 -10 10v660zM387 754q-10 0 -17 10l-71 85h-2l-70 -85
q-9 -10 -17 -10h-25q-5 0 -6 3t2 7l90 123q6 9 16 9h23q9 0 15 -9l91 -123q3 -4 2 -7t-6 -3h-25z" />
    <glyph glyph-name="Edieresis" unicode="&#xcb;" horiz-adv-x="556" 
d="M374 786q-10 0 -10 10v56q0 10 10 10h39q10 0 10 -10v-56q0 -10 -10 -10h-39zM174 786q-10 0 -10 10v56q0 10 10 10h39q10 0 10 -10v-56q0 -10 -10 -10h-39zM94 670q0 10 10 10h389q10 0 10 -10v-34q0 -10 -10 -10h-336q-6 0 -6 -6v-242q0 -6 6 -6h289q10 0 10 -10v-34
q0 -10 -10 -10h-289q-6 0 -6 -6v-252q0 -6 6 -6h336q10 0 10 -10v-34q0 -10 -10 -10h-389q-10 0 -10 10v660z" />
    <glyph glyph-name="Igrave" unicode="&#xcc;" horiz-adv-x="245" 
d="M94 670q0 10 10 10h37q10 0 10 -10v-660q0 -10 -10 -10h-37q-10 0 -10 10v660zM114 764q-6 0 -9.5 1.5t-8.5 7.5l-96 105q-3 4 -2 7t6 3h40q11 0 18 -10l82 -104q4 -5 2.5 -7.5t-6.5 -2.5h-26z" />
    <glyph glyph-name="Iacute" unicode="&#xcd;" horiz-adv-x="245" 
d="M94 670q0 10 10 10h37q10 0 10 -10v-660q0 -10 -10 -10h-37q-10 0 -10 10v660zM112 764q-5 0 -6.5 2.5t2.5 7.5l82 104q7 10 18 10h40q5 0 6 -3t-2 -7l-96 -105q-5 -6 -8.5 -7.5t-9.5 -1.5h-26z" />
    <glyph glyph-name="Icircumflex" unicode="&#xce;" horiz-adv-x="245" 
d="M94 670q0 10 10 10h37q10 0 10 -10v-660q0 -10 -10 -10h-37q-10 0 -10 10v660zM212 754q-10 0 -17 10l-71 85h-2l-70 -85q-9 -10 -17 -10h-25q-5 0 -6 3t2 7l90 123q6 9 16 9h23q9 0 15 -9l91 -123q3 -4 2 -7t-6 -3h-25z" />
    <glyph glyph-name="Idieresis" unicode="&#xcf;" horiz-adv-x="245" 
d="M94 670q0 10 10 10h37q10 0 10 -10v-660q0 -10 -10 -10h-37q-10 0 -10 10v660zM204 786q-10 0 -10 10v56q0 10 10 10h39q10 0 10 -10v-56q0 -10 -10 -10h-39zM4 786q-10 0 -10 10v56q0 10 10 10h39q10 0 10 -10v-56q0 -10 -10 -10h-39z" />
    <glyph glyph-name="Eth" unicode="&#xd0;" horiz-adv-x="620" 
d="M104 0q-10 0 -10 10v304q0 6 -6 6h-40q-10 0 -10 10v30q0 10 10 10h40q6 0 6 6v294q0 10 10 10h213q172 0 217 -138q5 -15 8.5 -31t6 -38.5t3.5 -54.5t1 -78q0 -47 -1 -78.5t-3.5 -54t-6 -38.5t-8.5 -31q-45 -138 -217 -138h-213zM309 54q66 0 109 24.5t61 78.5
q4 12 7 26t5 34.5t3 50t1 72.5t-1 72.5t-3 50t-5 34.5t-7 26q-18 54 -61 78.5t-109 24.5h-152q-6 0 -6 -6v-244q0 -6 6 -6h130q10 0 10 -10v-30q0 -10 -10 -10h-130q-6 0 -6 -6v-254q0 -6 6 -6h152z" />
    <glyph glyph-name="Ntilde" unicode="&#xd1;" horiz-adv-x="651" 
d="M378 782q-18 0 -32 6.5t-28 14.5q-12 8 -23.5 13t-25.5 5q-17 0 -30.5 -9.5t-27.5 -23.5q-9 -7 -9 3v30q0 7 8 15q12 14 27 22t34 8q18 0 32.5 -6t27.5 -14q12 -8 23.5 -13t25.5 -5q17 0 31 9t28 24q3 3 5.5 2t2.5 -5v-30q0 -5 -1 -8t-6 -8q-13 -13 -28 -21.5t-34 -8.5z
M94 670q0 10 10 10h37q12 0 17 -10l339 -559h3v559q0 10 10 10h37q10 0 10 -10v-660q0 -10 -10 -10h-39q-11 0 -17 10l-336 560h-4v-560q0 -10 -10 -10h-37q-10 0 -10 10v660z" />
    <glyph glyph-name="Ograve" unicode="&#xd2;" horiz-adv-x="609" 
d="M308 764q-6 0 -9.5 1.5t-8.5 7.5l-96 105q-3 4 -2 7t6 3h40q11 0 18 -10l82 -104q4 -5 2.5 -7.5t-6.5 -2.5h-26zM305 -10q-84 0 -139.5 39t-80.5 114q-5 13 -8.5 29.5t-6 39t-4 53.5t-1.5 75t1.5 75t4 53.5t6 38.5t8.5 30q25 75 80.5 114t139.5 39q83 0 138.5 -39
t80.5 -114q4 -14 8 -30t6.5 -38.5t4 -53.5t1.5 -75t-1.5 -75t-4 -53.5t-6.5 -39t-8 -29.5q-25 -75 -80.5 -114t-138.5 -39zM486 340q0 41 -1.5 71t-3.5 51t-5.5 35t-6.5 24q-38 115 -164 115q-127 0 -165 -115q-3 -10 -6.5 -24t-5.5 -35t-3.5 -51t-1.5 -71t1.5 -71t3.5 -51
t5.5 -35t6.5 -24q38 -115 165 -115q126 0 164 115q3 10 6.5 24t5.5 35t3.5 51t1.5 71z" />
    <glyph glyph-name="Oacute" unicode="&#xd3;" horiz-adv-x="609" 
d="M274 764q-5 0 -6.5 2.5t2.5 7.5l82 104q7 10 18 10h40q5 0 6 -3t-2 -7l-96 -105q-5 -6 -8.5 -7.5t-9.5 -1.5h-26zM305 -10q-84 0 -139.5 39t-80.5 114q-5 13 -8.5 29.5t-6 39t-4 53.5t-1.5 75t1.5 75t4 53.5t6 38.5t8.5 30q25 75 80.5 114t139.5 39q83 0 138.5 -39
t80.5 -114q4 -14 8 -30t6.5 -38.5t4 -53.5t1.5 -75t-1.5 -75t-4 -53.5t-6.5 -39t-8 -29.5q-25 -75 -80.5 -114t-138.5 -39zM486 340q0 41 -1.5 71t-3.5 51t-5.5 35t-6.5 24q-38 115 -164 115q-127 0 -165 -115q-3 -10 -6.5 -24t-5.5 -35t-3.5 -51t-1.5 -71t1.5 -71t3.5 -51
t5.5 -35t6.5 -24q38 -115 165 -115q126 0 164 115q3 10 6.5 24t5.5 35t3.5 51t1.5 71z" />
    <glyph glyph-name="Ocircumflex" unicode="&#xd4;" horiz-adv-x="609" 
d="M305 -10q-84 0 -139.5 39t-80.5 114q-5 13 -8.5 29.5t-6 39t-4 53.5t-1.5 75t1.5 75t4 53.5t6 38.5t8.5 30q25 75 80.5 114t139.5 39q83 0 138.5 -39t80.5 -114q4 -14 8 -30t6.5 -38.5t4 -53.5t1.5 -75t-1.5 -75t-4 -53.5t-6.5 -39t-8 -29.5q-25 -75 -80.5 -114
t-138.5 -39zM486 340q0 41 -1.5 71t-3.5 51t-5.5 35t-6.5 24q-38 115 -164 115q-127 0 -165 -115q-3 -10 -6.5 -24t-5.5 -35t-3.5 -51t-1.5 -71t1.5 -71t3.5 -51t5.5 -35t6.5 -24q38 -115 165 -115q126 0 164 115q3 10 6.5 24t5.5 35t3.5 51t1.5 71zM393 754q-10 0 -17 10
l-71 85h-2l-70 -85q-9 -10 -17 -10h-25q-5 0 -6 3t2 7l90 123q6 9 16 9h23q9 0 15 -9l91 -123q3 -4 2 -7t-6 -3h-25z" />
    <glyph glyph-name="Otilde" unicode="&#xd5;" horiz-adv-x="609" 
d="M358 782q-18 0 -32 6.5t-28 14.5q-12 8 -23.5 13t-25.5 5q-17 0 -30.5 -9.5t-27.5 -23.5q-9 -7 -9 3v30q0 7 8 15q12 14 27 22t34 8q18 0 32.5 -6t27.5 -14q12 -8 23.5 -13t25.5 -5q17 0 31 9t28 24q3 3 5.5 2t2.5 -5v-30q0 -5 -1 -8t-6 -8q-13 -13 -28 -21.5t-34 -8.5z
M305 -10q-84 0 -139.5 39t-80.5 114q-5 13 -8.5 29.5t-6 39t-4 53.5t-1.5 75t1.5 75t4 53.5t6 38.5t8.5 30q25 75 80.5 114t139.5 39q83 0 138.5 -39t80.5 -114q4 -14 8 -30t6.5 -38.5t4 -53.5t1.5 -75t-1.5 -75t-4 -53.5t-6.5 -39t-8 -29.5q-25 -75 -80.5 -114t-138.5 -39z
M486 340q0 41 -1.5 71t-3.5 51t-5.5 35t-6.5 24q-38 115 -164 115q-127 0 -165 -115q-3 -10 -6.5 -24t-5.5 -35t-3.5 -51t-1.5 -71t1.5 -71t3.5 -51t5.5 -35t6.5 -24q38 -115 165 -115q126 0 164 115q3 10 6.5 24t5.5 35t3.5 51t1.5 71z" />
    <glyph glyph-name="Odieresis" unicode="&#xd6;" horiz-adv-x="609" 
d="M385 786q-10 0 -10 10v56q0 10 10 10h39q10 0 10 -10v-56q0 -10 -10 -10h-39zM185 786q-10 0 -10 10v56q0 10 10 10h39q10 0 10 -10v-56q0 -10 -10 -10h-39zM305 -10q-84 0 -139.5 39t-80.5 114q-5 13 -8.5 29.5t-6 39t-4 53.5t-1.5 75t1.5 75t4 53.5t6 38.5t8.5 30
q25 75 80.5 114t139.5 39q83 0 138.5 -39t80.5 -114q4 -14 8 -30t6.5 -38.5t4 -53.5t1.5 -75t-1.5 -75t-4 -53.5t-6.5 -39t-8 -29.5q-25 -75 -80.5 -114t-138.5 -39zM486 340q0 41 -1.5 71t-3.5 51t-5.5 35t-6.5 24q-38 115 -164 115q-127 0 -165 -115q-3 -10 -6.5 -24
t-5.5 -35t-3.5 -51t-1.5 -71t1.5 -71t3.5 -51t5.5 -35t6.5 -24q38 -115 165 -115q126 0 164 115q3 10 6.5 24t5.5 35t3.5 51t1.5 71z" />
    <glyph glyph-name="multiply" unicode="&#xd7;" 
d="M412 109q-7 -7 -14 0l-127 127q-4 4 -8 0l-128 -127q-7 -7 -14 0l-20 22q-7 7 0 14l127 127q4 4 0 8l-127 127q-7 7 0 14l20 22q7 7 14 0l128 -127q4 -4 8 0l127 127q7 7 14 0l20 -22q7 -7 0 -14l-127 -127q-4 -4 0 -8l127 -127q7 -7 0 -14z" />
    <glyph glyph-name="Oslash" unicode="&#xd8;" horiz-adv-x="609" 
d="M305 -10q-92 0 -151 48l-33 -58q-5 -10 -15 -10h-24q-11 0 -6 10l49 86q-25 33 -40 77q-5 13 -8.5 29.5t-6 39t-4 53.5t-1.5 75t1.5 75t4 53.5t6 38.5t8.5 30q25 75 80.5 114t139.5 39q91 0 150 -48l33 58q5 10 15 10h24q11 0 6 -10l-50 -87q26 -32 41 -76q4 -14 8 -30
t6.5 -38.5t4 -53.5t1.5 -75t-1.5 -75t-4 -53.5t-6.5 -39t-8 -29.5q-25 -75 -80.5 -114t-138.5 -39zM140 159q6 -20 17 -38l269 471q-46 44 -121 44q-127 0 -165 -115q-3 -10 -6.5 -24t-5.5 -35t-3.5 -51t-1.5 -71t1.5 -71t3.5 -51t5.5 -35t6.5 -24zM486 340q0 41 -1.5 71
t-3.5 51t-5.5 35t-6.5 24q-4 10 -8 19.5t-9 17.5l-269 -471q44 -43 122 -43q126 0 164 115q3 10 6.5 24t5.5 35t3.5 51t1.5 71z" />
    <glyph glyph-name="Ugrave" unicode="&#xd9;" horiz-adv-x="635" 
d="M320 764q-6 0 -9.5 1.5t-8.5 7.5l-96 105q-3 4 -2 7t6 3h40q11 0 18 -10l82 -104q4 -5 2.5 -7.5t-6.5 -2.5h-26zM144 234q0 -97 46 -143.5t127 -46.5q82 0 128 46.5t46 143.5v436q0 10 10 10h37q10 0 10 -10v-435q0 -62 -16.5 -108t-46.5 -76.5t-72.5 -45.5t-95.5 -15
q-105 0 -167.5 60t-62.5 185v435q0 10 10 10h37q10 0 10 -10v-436z" />
    <glyph glyph-name="Uacute" unicode="&#xda;" horiz-adv-x="635" 
d="M286 764q-5 0 -6.5 2.5t2.5 7.5l82 104q7 10 18 10h40q5 0 6 -3t-2 -7l-96 -105q-5 -6 -8.5 -7.5t-9.5 -1.5h-26zM144 234q0 -97 46 -143.5t127 -46.5q82 0 128 46.5t46 143.5v436q0 10 10 10h37q10 0 10 -10v-435q0 -62 -16.5 -108t-46.5 -76.5t-72.5 -45.5t-95.5 -15
q-105 0 -167.5 60t-62.5 185v435q0 10 10 10h37q10 0 10 -10v-436z" />
    <glyph glyph-name="Ucircumflex" unicode="&#xdb;" horiz-adv-x="635" 
d="M144 234q0 -97 46 -143.5t127 -46.5q82 0 128 46.5t46 143.5v436q0 10 10 10h37q10 0 10 -10v-435q0 -62 -16.5 -108t-46.5 -76.5t-72.5 -45.5t-95.5 -15q-105 0 -167.5 60t-62.5 185v435q0 10 10 10h37q10 0 10 -10v-436zM406 754q-10 0 -17 10l-71 85h-2l-70 -85
q-9 -10 -17 -10h-25q-5 0 -6 3t2 7l90 123q6 9 16 9h23q9 0 15 -9l91 -123q3 -4 2 -7t-6 -3h-25z" />
    <glyph glyph-name="Udieresis" unicode="&#xdc;" horiz-adv-x="635" 
d="M398 786q-10 0 -10 10v56q0 10 10 10h39q10 0 10 -10v-56q0 -10 -10 -10h-39zM198 786q-10 0 -10 10v56q0 10 10 10h39q10 0 10 -10v-56q0 -10 -10 -10h-39zM144 234q0 -97 46 -143.5t127 -46.5q82 0 128 46.5t46 143.5v436q0 10 10 10h37q10 0 10 -10v-435
q0 -62 -16.5 -108t-46.5 -76.5t-72.5 -45.5t-95.5 -15q-105 0 -167.5 60t-62.5 185v435q0 10 10 10h37q10 0 10 -10v-436z" />
    <glyph glyph-name="Yacute" unicode="&#xdd;" horiz-adv-x="515" 
d="M239 0q-10 0 -10 10v269l-204 390q-2 4 0.5 7.5t7.5 3.5h39q10 0 15 -10l171 -325h3l168 325q5 10 15 10h38q6 0 8 -3.5t0 -7.5l-204 -390v-269q0 -10 -10 -10h-37zM235 764q-5 0 -6.5 2.5t2.5 7.5l82 104q7 10 18 10h40q5 0 6 -3t-2 -7l-96 -105q-5 -6 -8.5 -7.5
t-9.5 -1.5h-26z" />
    <glyph glyph-name="Thorn" unicode="&#xde;" horiz-adv-x="585" 
d="M104 0q-10 0 -10 10v660q0 10 10 10h37q10 0 10 -10v-125q0 -6 6 -6h174q98 0 153.5 -51t55.5 -141t-55.5 -141.5t-153.5 -51.5h-174q-6 0 -6 -6v-138q0 -10 -10 -10h-37zM329 208q75 0 114.5 36.5t39.5 102.5t-39.5 102t-114.5 36h-172q-6 0 -6 -6v-265q0 -6 6 -6h172z
" />
    <glyph glyph-name="germandbls" unicode="&#xdf;" horiz-adv-x="539" 
d="M282 -5q-10 0 -10 10v32q0 10 10 10h14q46 0 73 14.5t39 49.5q2 6 4 14t3 20.5t1.5 30.5t0.5 45q0 53 -2.5 76t-7.5 37q-11 36 -39.5 50t-73.5 15h-12q-10 0 -10 10v32q0 10 10 10h15q57 0 83.5 22t26.5 70q0 46 -31.5 71t-92.5 25q-75 0 -106 -33t-31 -110v-486
q0 -10 -10 -10h-34q-10 0 -10 10v486q0 47 10.5 83t33 61t58.5 37.5t88 12.5q90 0 134.5 -39t44.5 -108q0 -46 -18.5 -74t-52.5 -42v-2q24 -9 42 -27t28 -47q3 -9 5 -19.5t3.5 -25t2 -35t0.5 -50.5t-1 -51.5t-2.5 -36.5t-3.5 -25.5t-4 -18.5q-17 -52 -58.5 -73t-104.5 -21
h-15z" />
    <glyph glyph-name="agrave" unicode="&#xe0;" horiz-adv-x="513" 
d="M250 437q-44 0 -71.5 -9.5t-48.5 -26.5q-9 -7 -15 1l-17 25q-5 8 3 14q26 22 63.5 34t88.5 12q46 0 79 -8t54 -27t31 -49t10 -74v-319q0 -10 -10 -10h-32q-10 0 -10 10v50h-1q-14 -30 -51.5 -50t-96.5 -20q-72 0 -116 35.5t-44 105.5q0 72 46.5 106.5t134.5 34.5h121
q6 0 6 6v49q0 29 -5.5 50t-20 34.5t-38.5 19.5t-60 6zM237 40q62 0 99.5 29t37.5 78v73q0 6 -6 6h-114q-72 0 -103.5 -23t-31.5 -71q0 -45 30.5 -68.5t87.5 -23.5zM282 558q-6 0 -9.5 2.5t-8.5 7.5l-88 122q-3 4 -1.5 7t6.5 3h38q10 0 16 -10l77 -122q3 -5 1.5 -7.5
t-6.5 -2.5h-25z" />
    <glyph glyph-name="aacute" unicode="&#xe1;" horiz-adv-x="513" 
d="M250 437q-44 0 -71.5 -9.5t-48.5 -26.5q-9 -7 -15 1l-17 25q-5 8 3 14q26 22 63.5 34t88.5 12q46 0 79 -8t54 -27t31 -49t10 -74v-319q0 -10 -10 -10h-32q-10 0 -10 10v50h-1q-14 -30 -51.5 -50t-96.5 -20q-72 0 -116 35.5t-44 105.5q0 72 46.5 106.5t134.5 34.5h121
q6 0 6 6v49q0 29 -5.5 50t-20 34.5t-38.5 19.5t-60 6zM237 40q62 0 99.5 29t37.5 78v73q0 6 -6 6h-114q-72 0 -103.5 -23t-31.5 -71q0 -45 30.5 -68.5t87.5 -23.5zM236 558q-11 0 -6 10l77 122q6 10 17 10h38q5 0 6.5 -3t-1.5 -7l-88 -122q-5 -5 -8.5 -7.5t-9.5 -2.5h-25z
" />
    <glyph glyph-name="acircumflex" unicode="&#xe2;" horiz-adv-x="513" 
d="M250 437q-44 0 -71.5 -9.5t-48.5 -26.5q-9 -7 -15 1l-17 25q-5 8 3 14q26 22 63.5 34t88.5 12q46 0 79 -8t54 -27t31 -49t10 -74v-319q0 -10 -10 -10h-32q-10 0 -10 10v50h-1q-14 -30 -51.5 -50t-96.5 -20q-72 0 -116 35.5t-44 105.5q0 72 46.5 106.5t134.5 34.5h121
q6 0 6 6v49q0 29 -5.5 50t-20 34.5t-38.5 19.5t-60 6zM237 40q62 0 99.5 29t37.5 78v73q0 6 -6 6h-114q-72 0 -103.5 -23t-31.5 -71q0 -45 30.5 -68.5t87.5 -23.5zM345 558q-10 0 -17 10l-71 85h-2l-70 -85q-9 -10 -17 -10h-25q-5 0 -6 3t2 7l90 123q6 9 16 9h23q9 0 15 -9
l91 -123q3 -4 2 -7t-6 -3h-25z" />
    <glyph glyph-name="atilde" unicode="&#xe3;" horiz-adv-x="513" 
d="M250 437q-44 0 -71.5 -9.5t-48.5 -26.5q-9 -7 -15 1l-17 25q-5 8 3 14q26 22 63.5 34t88.5 12q46 0 79 -8t54 -27t31 -49t10 -74v-319q0 -10 -10 -10h-32q-10 0 -10 10v50h-1q-14 -30 -51.5 -50t-96.5 -20q-72 0 -116 35.5t-44 105.5q0 72 46.5 106.5t134.5 34.5h121
q6 0 6 6v49q0 29 -5.5 50t-20 34.5t-38.5 19.5t-60 6zM237 40q62 0 99.5 29t37.5 78v73q0 6 -6 6h-114q-72 0 -103.5 -23t-31.5 -71q0 -45 30.5 -68.5t87.5 -23.5zM309 596q-18 0 -32 6.5t-28 14.5q-12 8 -23.5 13t-25.5 5q-17 0 -30.5 -9.5t-27.5 -23.5q-9 -7 -9 3v30
q0 7 8 15q12 14 27 22t34 8q18 0 32.5 -6t27.5 -14q12 -8 23.5 -13t25.5 -5q17 0 31 9t28 24q3 3 5.5 2t2.5 -5v-30q0 -5 -1 -8t-6 -8q-13 -13 -28 -21.5t-34 -8.5z" />
    <glyph glyph-name="adieresis" unicode="&#xe4;" horiz-adv-x="513" 
d="M250 437q-44 0 -71.5 -9.5t-48.5 -26.5q-9 -7 -15 1l-17 25q-5 8 3 14q26 22 63.5 34t88.5 12q46 0 79 -8t54 -27t31 -49t10 -74v-319q0 -10 -10 -10h-32q-10 0 -10 10v50h-1q-14 -30 -51.5 -50t-96.5 -20q-72 0 -116 35.5t-44 105.5q0 72 46.5 106.5t134.5 34.5h121
q6 0 6 6v49q0 29 -5.5 50t-20 34.5t-38.5 19.5t-60 6zM237 40q62 0 99.5 29t37.5 78v73q0 6 -6 6h-114q-72 0 -103.5 -23t-31.5 -71q0 -45 30.5 -68.5t87.5 -23.5zM335 604q-10 0 -10 10v56q0 10 10 10h40q10 0 10 -10v-56q0 -10 -10 -10h-40zM136 604q-10 0 -10 10v56
q0 10 10 10h40q10 0 10 -10v-56q0 -10 -10 -10h-40z" />
    <glyph glyph-name="aring" unicode="&#xe5;" horiz-adv-x="513" 
d="M250 437q-44 0 -71.5 -9.5t-48.5 -26.5q-9 -7 -15 1l-17 25q-5 8 3 14q26 22 63.5 34t88.5 12q46 0 79 -8t54 -27t31 -49t10 -74v-319q0 -10 -10 -10h-32q-10 0 -10 10v50h-1q-14 -30 -51.5 -50t-96.5 -20q-72 0 -116 35.5t-44 105.5q0 72 46.5 106.5t134.5 34.5h121
q6 0 6 6v49q0 29 -5.5 50t-20 34.5t-38.5 19.5t-60 6zM237 40q62 0 99.5 29t37.5 78v73q0 6 -6 6h-114q-72 0 -103.5 -23t-31.5 -71q0 -45 30.5 -68.5t87.5 -23.5zM346 629q0 -38 -25 -63t-63 -25t-63 25t-25 63t25 63t63 25t63 -25t25 -63zM311 629q0 24 -14.5 40t-38.5 16
t-38.5 -16t-14.5 -40t14.5 -40t38.5 -16t38.5 16t14.5 40z" />
    <glyph glyph-name="ae" unicode="&#xe6;" horiz-adv-x="814" 
d="M250 437q-44 0 -71.5 -9.5t-48.5 -26.5q-9 -7 -15 1l-17 25q-5 8 3 14q26 22 63.5 34t88.5 12q65 0 104 -18t53 -62h2q47 80 151 80q65 0 111.5 -32t66.5 -92q8 -23 11 -50t3 -77q0 -10 -11 -10h-311q-6 0 -6 -7q0 -30 2.5 -48.5t7.5 -35.5q17 -48 51.5 -70.5t83.5 -22.5
q47 0 79.5 17.5t53.5 43.5q6 8 14 2l23 -21q7 -6 1 -14q-26 -35 -70 -57.5t-104 -22.5q-65 0 -105.5 26t-61.5 67h-1q-19 -45 -62 -69t-113 -24q-72 0 -116 35.5t-44 105.5q0 72 46.5 106.5t134.5 34.5h121q6 0 6 6v49q0 29 -5.5 50t-20 34.5t-38.5 19.5t-60 6zM694 272
q6 0 6 6q0 22 -2 38.5t-7 30.5q-14 45 -47 67.5t-81 22.5q-47 0 -80 -22.5t-47 -67.5q-5 -14 -7 -30.5t-2 -38.5q0 -6 6 -6h261zM237 40q62 0 99.5 29t37.5 78v73q0 6 -6 6h-114q-72 0 -103.5 -23t-31.5 -71q0 -45 30.5 -68.5t87.5 -23.5z" />
    <glyph glyph-name="ccedilla" unicode="&#xe7;" horiz-adv-x="470" 
d="M186 -148q-10 0 -7 10l50 130q-57 5 -97 36.5t-57 85.5q-7 23 -11 52t-4 72t4 72.5t11 52.5q19 59 65.5 91.5t112.5 32.5q57 0 96 -23t65 -67q5 -8 -3 -13l-28 -18q-8 -5 -13 4q-21 33 -48 49t-69 16q-47 0 -79 -22.5t-46 -67.5q-7 -20 -10 -45t-3 -62t3 -61.5t10 -44.5
q14 -45 46 -67.5t79 -22.5q42 0 69 16t48 49q5 9 13 4l28 -18q8 -5 3 -13q-24 -39 -57.5 -61.5t-80.5 -27.5l-43 -129q-4 -10 -16 -10h-31z" />
    <glyph glyph-name="egrave" unicode="&#xe8;" horiz-adv-x="502" 
d="M257 -10q-70 0 -116.5 32t-66.5 94q-7 22 -10.5 49.5t-3.5 73.5q0 45 3.5 73.5t10.5 50.5q20 60 66 92t111 32t111.5 -32t66.5 -92q8 -23 11 -50t3 -77q0 -10 -11 -10h-311q-6 0 -6 -7q0 -30 2.5 -48.5t7.5 -35.5q17 -48 51.5 -70.5t83.5 -22.5q47 0 79.5 17.5t53.5 43.5
q6 8 14 2l23 -21q7 -6 1 -14q-26 -35 -70 -57.5t-104 -22.5zM382 272q6 0 6 6q0 22 -2 38.5t-7 30.5q-14 45 -47 67.5t-81 22.5q-47 0 -80 -22.5t-47 -67.5q-5 -14 -7 -30.5t-2 -38.5q0 -6 6 -6h261zM255 558q-6 0 -9.5 2.5t-8.5 7.5l-88 122q-3 4 -1.5 7t6.5 3h38
q10 0 16 -10l77 -122q3 -5 1.5 -7.5t-6.5 -2.5h-25z" />
    <glyph glyph-name="eacute" unicode="&#xe9;" horiz-adv-x="502" 
d="M225 558q-11 0 -6 10l77 122q6 10 17 10h38q5 0 6.5 -3t-1.5 -7l-88 -122q-5 -5 -8.5 -7.5t-9.5 -2.5h-25zM257 -10q-70 0 -116.5 32t-66.5 94q-7 22 -10.5 49.5t-3.5 73.5q0 45 3.5 73.5t10.5 50.5q20 60 66 92t111 32t111.5 -32t66.5 -92q8 -23 11 -50t3 -77
q0 -10 -11 -10h-311q-6 0 -6 -7q0 -30 2.5 -48.5t7.5 -35.5q17 -48 51.5 -70.5t83.5 -22.5q47 0 79.5 17.5t53.5 43.5q6 8 14 2l23 -21q7 -6 1 -14q-26 -35 -70 -57.5t-104 -22.5zM382 272q6 0 6 6q0 22 -2 38.5t-7 30.5q-14 45 -47 67.5t-81 22.5q-47 0 -80 -22.5
t-47 -67.5q-5 -14 -7 -30.5t-2 -38.5q0 -6 6 -6h261z" />
    <glyph glyph-name="ecircumflex" unicode="&#xea;" horiz-adv-x="502" 
d="M339 558q-10 0 -17 10l-71 85h-2l-70 -85q-9 -10 -17 -10h-25q-5 0 -6 3t2 7l90 123q6 9 16 9h23q9 0 15 -9l91 -123q3 -4 2 -7t-6 -3h-25zM257 -10q-70 0 -116.5 32t-66.5 94q-7 22 -10.5 49.5t-3.5 73.5q0 45 3.5 73.5t10.5 50.5q20 60 66 92t111 32t111.5 -32
t66.5 -92q8 -23 11 -50t3 -77q0 -10 -11 -10h-311q-6 0 -6 -7q0 -30 2.5 -48.5t7.5 -35.5q17 -48 51.5 -70.5t83.5 -22.5q47 0 79.5 17.5t53.5 43.5q6 8 14 2l23 -21q7 -6 1 -14q-26 -35 -70 -57.5t-104 -22.5zM382 272q6 0 6 6q0 22 -2 38.5t-7 30.5q-14 45 -47 67.5
t-81 22.5q-47 0 -80 -22.5t-47 -67.5q-5 -14 -7 -30.5t-2 -38.5q0 -6 6 -6h261z" />
    <glyph glyph-name="edieresis" unicode="&#xeb;" horiz-adv-x="502" 
d="M330 604q-10 0 -10 10v56q0 10 10 10h40q10 0 10 -10v-56q0 -10 -10 -10h-40zM131 604q-10 0 -10 10v56q0 10 10 10h40q10 0 10 -10v-56q0 -10 -10 -10h-40zM257 -10q-70 0 -116.5 32t-66.5 94q-7 22 -10.5 49.5t-3.5 73.5q0 45 3.5 73.5t10.5 50.5q20 60 66 92t111 32
t111.5 -32t66.5 -92q8 -23 11 -50t3 -77q0 -10 -11 -10h-311q-6 0 -6 -7q0 -30 2.5 -48.5t7.5 -35.5q17 -48 51.5 -70.5t83.5 -22.5q47 0 79.5 17.5t53.5 43.5q6 8 14 2l23 -21q7 -6 1 -14q-26 -35 -70 -57.5t-104 -22.5zM382 272q6 0 6 6q0 22 -2 38.5t-7 30.5
q-14 45 -47 67.5t-81 22.5q-47 0 -80 -22.5t-47 -67.5q-5 -14 -7 -30.5t-2 -38.5q0 -6 6 -6h261z" />
    <glyph glyph-name="igrave" unicode="&#xec;" horiz-adv-x="238" 
d="M102 0q-10 0 -10 10v457q0 10 10 10h34q10 0 10 -10v-457q0 -10 -10 -10h-34zM108 558q-6 0 -9.5 2.5t-8.5 7.5l-88 122q-3 4 -1.5 7t6.5 3h38q10 0 16 -10l77 -122q3 -5 1.5 -7.5t-6.5 -2.5h-25z" />
    <glyph glyph-name="iacute" unicode="&#xed;" horiz-adv-x="238" 
d="M107 558q-11 0 -6 10l77 122q6 10 17 10h38q5 0 6.5 -3t-1.5 -7l-88 -122q-5 -5 -8.5 -7.5t-9.5 -2.5h-25zM102 0q-10 0 -10 10v457q0 10 10 10h34q10 0 10 -10v-457q0 -10 -10 -10h-34z" />
    <glyph glyph-name="icircumflex" unicode="&#xee;" horiz-adv-x="238" 
d="M208 558q-10 0 -17 10l-71 85h-2l-70 -85q-9 -10 -17 -10h-25q-5 0 -6 3t2 7l90 123q6 9 16 9h23q9 0 15 -9l91 -123q3 -4 2 -7t-6 -3h-25zM102 0q-10 0 -10 10v457q0 10 10 10h34q10 0 10 -10v-457q0 -10 -10 -10h-34z" />
    <glyph glyph-name="idieresis" unicode="&#xef;" horiz-adv-x="238" 
d="M199 604q-10 0 -10 10v56q0 10 10 10h40q10 0 10 -10v-56q0 -10 -10 -10h-40zM0 604q-10 0 -10 10v56q0 10 10 10h40q10 0 10 -10v-56q0 -10 -10 -10h-40zM102 0q-10 0 -10 10v457q0 10 10 10h34q10 0 10 -10v-457q0 -10 -10 -10h-34z" />
    <glyph glyph-name="eth" unicode="&#xf0;" horiz-adv-x="509" 
d="M293 576l39 -47q31 -39 53.5 -73.5t36.5 -68.5t20.5 -68.5t6.5 -74.5q0 -49 -4 -78t-11 -52q-20 -60 -66.5 -92t-112.5 -32q-67 0 -113 32t-66 92q-8 23 -12 51.5t-4 67.5q0 40 4 68.5t12 51.5q19 58 62.5 90t103.5 32q25 0 45 -6t43 -21h1l-90 112l-96 -29q-12 -3 -14 7
l-7 25q-1 9 8 12l78 23l-57 72q-3 4 -1.5 7t6.5 3h42q6 0 9.5 -2.5t7.5 -7.5l45 -56l94 28q11 3 13 -6l7 -24q2 -10 -7 -13zM255 42q46 0 79 22.5t47 65.5q7 20 10 44t3 59t-3 58t-10 43q-14 43 -46.5 67t-79.5 24t-80 -23t-47 -66q-7 -20 -10 -44t-3 -59t3 -59t10 -44
q14 -43 47 -65.5t80 -22.5z" />
    <glyph glyph-name="ntilde" unicode="&#xf1;" horiz-adv-x="541" 
d="M411 0q-10 0 -10 10v282q0 143 -125 143q-55 0 -92.5 -35t-37.5 -98v-292q0 -10 -10 -10h-34q-10 0 -10 10v457q0 10 10 10h34q10 0 10 -10v-57h1q18 35 54 56t87 21q80 0 123.5 -47t43.5 -135v-295q0 -10 -10 -10h-34zM323 596q-18 0 -32 6.5t-28 14.5q-12 8 -23.5 13
t-25.5 5q-17 0 -30.5 -9.5t-27.5 -23.5q-9 -7 -9 3v30q0 7 8 15q12 14 27 22t34 8q18 0 32.5 -6t27.5 -14q12 -8 23.5 -13t25.5 -5q17 0 31 9t28 24q3 3 5.5 2t2.5 -5v-30q0 -5 -1 -8t-6 -8q-13 -13 -28 -21.5t-34 -8.5z" />
    <glyph glyph-name="ograve" unicode="&#xf2;" horiz-adv-x="509" 
d="M254 -10q-66 0 -112 32t-66 92q-8 24 -12 52.5t-4 72.5q0 43 4 71.5t12 52.5q20 60 66 92t112 32t112.5 -32t66.5 -92q8 -24 12 -52.5t4 -71.5q0 -44 -4 -72.5t-12 -52.5q-20 -60 -66.5 -92t-112.5 -32zM254 42q47 0 80 23t47 66q7 20 10 44.5t3 63.5q0 38 -3 62.5
t-10 44.5q-14 43 -47 66t-80 23q-46 0 -79 -23t-47 -66q-7 -20 -10 -44.5t-3 -62.5q0 -39 3 -63.5t10 -44.5q14 -43 47 -66t79 -23zM255 558q-6 0 -9.5 2.5t-8.5 7.5l-88 122q-3 4 -1.5 7t6.5 3h38q10 0 16 -10l77 -122q3 -5 1.5 -7.5t-6.5 -2.5h-25z" />
    <glyph glyph-name="oacute" unicode="&#xf3;" horiz-adv-x="509" 
d="M228 558q-11 0 -6 10l77 122q6 10 17 10h38q5 0 6.5 -3t-1.5 -7l-88 -122q-5 -5 -8.5 -7.5t-9.5 -2.5h-25zM254 -10q-66 0 -112 32t-66 92q-8 24 -12 52.5t-4 72.5q0 43 4 71.5t12 52.5q20 60 66 92t112 32t112.5 -32t66.5 -92q8 -24 12 -52.5t4 -71.5q0 -44 -4 -72.5
t-12 -52.5q-20 -60 -66.5 -92t-112.5 -32zM254 42q47 0 80 23t47 66q7 20 10 44.5t3 63.5q0 38 -3 62.5t-10 44.5q-14 43 -47 66t-80 23q-46 0 -79 -23t-47 -66q-7 -20 -10 -44.5t-3 -62.5q0 -39 3 -63.5t10 -44.5q14 -43 47 -66t79 -23z" />
    <glyph glyph-name="ocircumflex" unicode="&#xf4;" horiz-adv-x="509" 
d="M342 558q-10 0 -17 10l-71 85h-2l-70 -85q-9 -10 -17 -10h-25q-5 0 -6 3t2 7l90 123q6 9 16 9h23q9 0 15 -9l91 -123q3 -4 2 -7t-6 -3h-25zM254 -10q-66 0 -112 32t-66 92q-8 24 -12 52.5t-4 72.5q0 43 4 71.5t12 52.5q20 60 66 92t112 32t112.5 -32t66.5 -92
q8 -24 12 -52.5t4 -71.5q0 -44 -4 -72.5t-12 -52.5q-20 -60 -66.5 -92t-112.5 -32zM254 42q47 0 80 23t47 66q7 20 10 44.5t3 63.5q0 38 -3 62.5t-10 44.5q-14 43 -47 66t-80 23q-46 0 -79 -23t-47 -66q-7 -20 -10 -44.5t-3 -62.5q0 -39 3 -63.5t10 -44.5q14 -43 47 -66
t79 -23z" />
    <glyph glyph-name="otilde" unicode="&#xf5;" horiz-adv-x="509" 
d="M254 -10q-66 0 -112 32t-66 92q-8 24 -12 52.5t-4 72.5q0 43 4 71.5t12 52.5q20 60 66 92t112 32t112.5 -32t66.5 -92q8 -24 12 -52.5t4 -71.5q0 -44 -4 -72.5t-12 -52.5q-20 -60 -66.5 -92t-112.5 -32zM254 42q47 0 80 23t47 66q7 20 10 44.5t3 63.5q0 38 -3 62.5
t-10 44.5q-14 43 -47 66t-80 23q-46 0 -79 -23t-47 -66q-7 -20 -10 -44.5t-3 -62.5q0 -39 3 -63.5t10 -44.5q14 -43 47 -66t79 -23zM307 596q-18 0 -32 6.5t-28 14.5q-12 8 -23.5 13t-25.5 5q-17 0 -30.5 -9.5t-27.5 -23.5q-9 -7 -9 3v30q0 7 8 15q12 14 27 22t34 8
q18 0 32.5 -6t27.5 -14q12 -8 23.5 -13t25.5 -5q17 0 31 9t28 24q3 3 5.5 2t2.5 -5v-30q0 -5 -1 -8t-6 -8q-13 -13 -28 -21.5t-34 -8.5z" />
    <glyph glyph-name="odieresis" unicode="&#xf6;" horiz-adv-x="509" 
d="M333 604q-10 0 -10 10v56q0 10 10 10h40q10 0 10 -10v-56q0 -10 -10 -10h-40zM134 604q-10 0 -10 10v56q0 10 10 10h40q10 0 10 -10v-56q0 -10 -10 -10h-40zM254 -10q-66 0 -112 32t-66 92q-8 24 -12 52.5t-4 72.5q0 43 4 71.5t12 52.5q20 60 66 92t112 32t112.5 -32
t66.5 -92q8 -24 12 -52.5t4 -71.5q0 -44 -4 -72.5t-12 -52.5q-20 -60 -66.5 -92t-112.5 -32zM254 42q47 0 80 23t47 66q7 20 10 44.5t3 63.5q0 38 -3 62.5t-10 44.5q-14 43 -47 66t-80 23q-46 0 -79 -23t-47 -66q-7 -20 -10 -44.5t-3 -62.5q0 -39 3 -63.5t10 -44.5
q14 -43 47 -66t79 -23z" />
    <glyph glyph-name="divide" unicode="&#xf7;" 
d="M223 423q0 18 12.5 30.5t30.5 12.5t30.5 -12.5t12.5 -30.5t-12.5 -30.5t-30.5 -12.5t-30.5 12.5t-12.5 30.5zM76 251q-10 0 -10 10v30q0 10 10 10h380q10 0 10 -10v-30q0 -10 -10 -10h-380zM223 129q0 18 12.5 30.5t30.5 12.5t30.5 -12.5t12.5 -30.5t-12.5 -30.5
t-30.5 -12.5t-30.5 12.5t-12.5 30.5z" />
    <glyph glyph-name="oslash" unicode="&#xf8;" horiz-adv-x="509" 
d="M254 -10q-72 0 -120 39l-33 -49q-7 -10 -17 -10h-17q-5 0 -6 3t1 7l47 72q-22 28 -33 62q-8 24 -12 52.5t-4 72.5q0 43 4 71.5t12 52.5q20 60 66 92t112 32q71 0 121 -39l33 49q7 10 17 10h17q5 0 6 -3t-1 -7l-48 -73q21 -24 34 -61q8 -24 12 -52.5t4 -71.5
q0 -44 -4 -72.5t-12 -52.5q-20 -60 -66.5 -92t-112.5 -32zM128 131q6 -17 14 -31l203 303q-35 32 -91 32q-46 0 -79 -23t-47 -66q-7 -20 -10 -44.5t-3 -62.5q0 -39 3 -63.5t10 -44.5zM254 42q47 0 80 23t47 66q7 20 10 44.5t3 63.5q0 38 -3 62.5t-10 44.5q-3 8 -6 15.5
t-8 15.5l-203 -303q35 -32 90 -32z" />
    <glyph glyph-name="ugrave" unicode="&#xf9;" horiz-adv-x="535" 
d="M399 0q-10 0 -10 10v56h-1q-18 -35 -54 -55.5t-85 -20.5q-80 0 -122.5 47t-42.5 134v296q0 10 10 10h34q10 0 10 -10v-282q0 -143 123 -143q27 0 50.5 9t40.5 26.5t27 42t10 55.5v292q0 10 10 10h34q10 0 10 -10v-457q0 -10 -10 -10h-34zM271 558q-6 0 -9.5 2.5t-8.5 7.5
l-88 122q-3 4 -1.5 7t6.5 3h38q10 0 16 -10l77 -122q3 -5 1.5 -7.5t-6.5 -2.5h-25z" />
    <glyph glyph-name="uacute" unicode="&#xfa;" horiz-adv-x="535" 
d="M239 558q-11 0 -6 10l77 122q6 10 17 10h38q5 0 6.5 -3t-1.5 -7l-88 -122q-5 -5 -8.5 -7.5t-9.5 -2.5h-25zM399 0q-10 0 -10 10v56h-1q-18 -35 -54 -55.5t-85 -20.5q-80 0 -122.5 47t-42.5 134v296q0 10 10 10h34q10 0 10 -10v-282q0 -143 123 -143q27 0 50.5 9
t40.5 26.5t27 42t10 55.5v292q0 10 10 10h34q10 0 10 -10v-457q0 -10 -10 -10h-34z" />
    <glyph glyph-name="ucircumflex" unicode="&#xfb;" horiz-adv-x="535" 
d="M355 558q-10 0 -17 10l-71 85h-2l-70 -85q-9 -10 -17 -10h-25q-5 0 -6 3t2 7l90 123q6 9 16 9h23q9 0 15 -9l91 -123q3 -4 2 -7t-6 -3h-25zM399 0q-10 0 -10 10v56h-1q-18 -35 -54 -55.5t-85 -20.5q-80 0 -122.5 47t-42.5 134v296q0 10 10 10h34q10 0 10 -10v-282
q0 -143 123 -143q27 0 50.5 9t40.5 26.5t27 42t10 55.5v292q0 10 10 10h34q10 0 10 -10v-457q0 -10 -10 -10h-34z" />
    <glyph glyph-name="udieresis" unicode="&#xfc;" horiz-adv-x="535" 
d="M346 604q-10 0 -10 10v56q0 10 10 10h40q10 0 10 -10v-56q0 -10 -10 -10h-40zM147 604q-10 0 -10 10v56q0 10 10 10h40q10 0 10 -10v-56q0 -10 -10 -10h-40zM399 0q-10 0 -10 10v56h-1q-18 -35 -54 -55.5t-85 -20.5q-80 0 -122.5 47t-42.5 134v296q0 10 10 10h34
q10 0 10 -10v-282q0 -143 123 -143q27 0 50.5 9t40.5 26.5t27 42t10 55.5v292q0 10 10 10h34q10 0 10 -10v-457q0 -10 -10 -10h-34z" />
    <glyph glyph-name="yacute" unicode="&#xfd;" horiz-adv-x="467" 
d="M82 -180q-10 0 -10 10v32q0 10 10 10h18q15 0 27.5 4t23 13.5t20 27t19.5 44.5l19 49l-176 457q-3 10 7 10h38q9 0 13 -10l145 -383h1l141 383q3 10 12 10h38q10 0 7 -10l-195 -513q-15 -41 -30 -67t-31 -41t-34.5 -20.5t-41.5 -5.5h-21zM210 558q-11 0 -6 10l77 122
q6 10 17 10h38q5 0 6.5 -3t-1.5 -7l-88 -122q-5 -5 -8.5 -7.5t-9.5 -2.5h-25z" />
    <glyph glyph-name="thorn" unicode="&#xfe;" horiz-adv-x="531" 
d="M102 -180q-10 0 -10 10v840q0 10 10 10h34q10 0 10 -10v-261h1q17 34 51 56t94 22q124 0 162 -114q9 -29 13 -61.5t4 -73.5q0 -40 -4 -72.5t-13 -61.5q-38 -114 -162 -114q-60 0 -94 22t-51 56h-1v-238q0 -10 -10 -10h-34zM281 42q48 0 78 21.5t44 62.5q8 23 10.5 51.5
t2.5 60.5t-2.5 61t-10.5 52q-14 41 -44 62.5t-78 21.5q-45 0 -76.5 -21t-45.5 -63q-7 -20 -10 -47t-3 -66t3 -65.5t10 -46.5q14 -42 45.5 -63t76.5 -21z" />
    <glyph glyph-name="ydieresis" unicode="&#xff;" horiz-adv-x="467" 
d="M82 -180q-10 0 -10 10v32q0 10 10 10h18q15 0 27.5 4t23 13.5t20 27t19.5 44.5l19 49l-176 457q-3 10 7 10h38q9 0 13 -10l145 -383h1l141 383q3 10 12 10h38q10 0 7 -10l-195 -513q-15 -41 -30 -67t-31 -41t-34.5 -20.5t-41.5 -5.5h-21zM314 604q-10 0 -10 10v56
q0 10 10 10h40q10 0 10 -10v-56q0 -10 -10 -10h-40zM115 604q-10 0 -10 10v56q0 10 10 10h40q10 0 10 -10v-56q0 -10 -10 -10h-40z" />
    <glyph glyph-name="dotlessi" unicode="&#x131;" horiz-adv-x="238" 
d="M102 0q-10 0 -10 10v457q0 10 10 10h34q10 0 10 -10v-457q0 -10 -10 -10h-34z" />
    <glyph glyph-name="Lslash" unicode="&#x141;" horiz-adv-x="530" 
d="M104 0q-10 0 -10 10v281l-57 -29q-10 -5 -10 6v36q0 9 10 14l57 29v323q0 10 10 10h37q10 0 10 -10v-294l158 81q10 5 10 -6v-36q0 -9 -10 -14l-158 -81v-260q0 -6 6 -6h336q10 0 10 -10v-34q0 -10 -10 -10h-389z" />
    <glyph glyph-name="lslash" unicode="&#x142;" horiz-adv-x="262" 
d="M145 347v-236q0 -35 12 -48.5t39 -13.5h17q10 0 10 -10v-32q0 -10 -10 -10h-23q-54 0 -76.5 26t-22.5 86v213l-39 -20q-10 -5 -10 6v33q0 9 10 14l39 20v295q0 10 10 10h34q10 0 10 -10v-270l68 36q10 5 10 -6v-33q0 -9 -10 -14z" />
    <glyph glyph-name="OE" unicode="&#x152;" horiz-adv-x="949" 
d="M306 -10q-84 0 -139.5 39t-80.5 114q-5 13 -8.5 29.5t-6 39t-4 53.5t-1.5 75t1.5 75t4 53.5t6 38.5t8.5 30q25 75 80.5 114t139.5 39q61 0 107.5 -23.5t72.5 -74.5h1v78q0 10 10 10h389q10 0 10 -10v-34q0 -10 -10 -10h-336q-6 0 -6 -6v-242q0 -6 6 -6h289q10 0 10 -10
v-34q0 -10 -10 -10h-289q-6 0 -6 -6v-252q0 -6 6 -6h336q10 0 10 -10v-34q0 -10 -10 -10h-389q-10 0 -10 10v78h-1q-26 -51 -72.5 -74.5t-107.5 -23.5zM306 44q126 0 164 115q3 10 6.5 24t5.5 35t3.5 51t1.5 71t-1.5 71t-3.5 51t-5.5 35t-6.5 24q-38 115 -164 115
q-127 0 -165 -115q-3 -10 -6.5 -24t-5.5 -35t-3.5 -51t-1.5 -71t1.5 -71t3.5 -51t5.5 -35t6.5 -24q38 -115 165 -115z" />
    <glyph glyph-name="oe" unicode="&#x153;" horiz-adv-x="836" 
d="M590 -10q-60 0 -102.5 24.5t-65.5 75.5h-2q-22 -50 -64.5 -75t-101.5 -25q-66 0 -112.5 32t-65.5 92q-8 24 -12 52.5t-4 71.5q0 44 4 72.5t12 52.5q19 59 65.5 91.5t112.5 32.5q58 0 101 -25.5t65 -74.5h1q23 50 65 75t99 25q65 0 111 -32t66 -92q7 -23 10.5 -50t3.5 -77
q0 -10 -11 -10h-311q-6 0 -6 -7q1 -30 3.5 -48.5t7.5 -35.5q16 -48 50.5 -70.5t83.5 -22.5q48 0 81 17.5t53 43.5q8 8 15 2l21 -21q7 -6 1 -14q-26 -35 -70 -57.5t-104 -22.5zM715 272q6 0 6 6q0 22 -2 38.5t-7 30.5q-15 45 -47.5 67.5t-79.5 22.5t-80 -22.5t-47 -67.5
q-5 -14 -7.5 -30.5t-2.5 -38.5q0 -6 6 -6h261zM254 42q47 0 80 23t47 66q7 20 10 44.5t3 63.5q0 38 -3 62.5t-10 44.5q-14 43 -47 66t-80 23q-46 0 -79 -23t-47 -66q-7 -20 -10 -44.5t-3 -62.5q0 -39 3 -63.5t10 -44.5q14 -43 47 -66t79 -23z" />
    <glyph glyph-name="Scaron" unicode="&#x160;" horiz-adv-x="596" 
d="M290 -10q-33 0 -66 6.5t-62.5 17.5t-54 25.5t-42.5 29.5q-8 7 -1 14l24 30q7 8 14 1q34 -26 84.5 -48t110.5 -22q82 0 129 38t47 101q0 25 -8 46.5t-26.5 38.5t-50 29t-78.5 18l-31 4q-100 13 -148 59t-48 121q0 89 58 140t156 51q57 0 108 -15.5t86 -41.5q9 -5 2 -14
l-20 -31q-6 -7 -14 -2q-41 25 -81 37.5t-84 12.5q-73 0 -113.5 -36.5t-40.5 -96.5q0 -52 36.5 -85t123.5 -44l31 -4q104 -14 151.5 -60.5t47.5 -122.5q0 -43 -15.5 -79t-45.5 -62.5t-75 -41t-104 -14.5zM286 754q-10 0 -16 9l-90 122q-3 4 -2 7t6 3h25q8 0 17 -10l70 -85h2
l71 85q5 6 8 8t9 2h25q5 0 6 -3t-2 -7l-91 -122q-6 -9 -15 -9h-23z" />
    <glyph glyph-name="scaron" unicode="&#x161;" horiz-adv-x="481" 
d="M230 558q-10 0 -16 9l-90 122q-3 4 -2 7t6 3h25q8 0 17 -10l70 -85h2l71 85q5 6 8 8t9 2h25q5 0 6 -3t-2 -7l-91 -122q-6 -9 -15 -9h-23zM241 -10q-32 0 -60 6t-51.5 16t-42 21.5t-32.5 23.5q-7 7 0 14l22 25q6 6 14 0q28 -23 67 -39.5t88 -16.5q63 0 93.5 25t30.5 67
q0 18 -4.5 32t-17 24.5t-33.5 17t-54 10.5l-48 5q-67 7 -103 38.5t-36 88.5q0 66 44.5 102.5t123.5 36.5q49 0 89.5 -13.5t69.5 -32.5q8 -6 2 -14l-18 -24q-5 -8 -14 -3q-23 14 -58.5 25.5t-73.5 11.5q-55 0 -83 -22.5t-28 -62.5q0 -35 24.5 -54.5t85.5 -25.5l48 -5
q70 -7 104 -39.5t34 -88.5q0 -69 -46.5 -109t-136.5 -40z" />
    <glyph glyph-name="Ydieresis" unicode="&#x178;" horiz-adv-x="515" 
d="M239 0q-10 0 -10 10v269l-204 390q-2 4 0.5 7.5t7.5 3.5h39q10 0 15 -10l171 -325h3l168 325q5 10 15 10h38q6 0 8 -3.5t0 -7.5l-204 -390v-269q0 -10 -10 -10h-37zM338 786q-10 0 -10 10v56q0 10 10 10h39q10 0 10 -10v-56q0 -10 -10 -10h-39zM138 786q-10 0 -10 10v56
q0 10 10 10h39q10 0 10 -10v-56q0 -10 -10 -10h-39z" />
    <glyph glyph-name="Zcaron" unicode="&#x17d;" horiz-adv-x="540" 
d="M259 754q-10 0 -16 9l-90 122q-3 4 -2 7t6 3h25q8 0 17 -10l70 -85h2l71 85q5 6 8 8t9 2h25q5 0 6 -3t-2 -7l-91 -122q-6 -9 -15 -9h-23zM63 0q-10 0 -10 10v33q0 7 5 15l361 567v1h-343q-10 0 -10 10v34q0 10 10 10h400q10 0 10 -10v-33q0 -8 -5 -15l-361 -567v-1h356
q10 0 10 -10v-34q0 -10 -10 -10h-413z" />
    <glyph glyph-name="zcaron" unicode="&#x17e;" horiz-adv-x="467" 
d="M223 558q-10 0 -16 9l-90 122q-3 4 -2 7t6 3h25q8 0 17 -10l70 -85h2l71 85q5 6 8 8t9 2h25q5 0 6 -3t-2 -7l-91 -122q-6 -9 -15 -9h-23zM68 0q-10 0 -10 10v30q0 7 5 13l283 371v1h-265q-10 0 -10 10v32q0 10 10 10h320q10 0 10 -10v-32q0 -7 -5 -13l-282 -369v-2h277
q10 0 10 -10v-31q0 -10 -10 -10h-333z" />
    <glyph glyph-name="florin" unicode="&#x192;" 
d="M308 348l-59 -385q-6 -40 -17 -67.5t-28.5 -44t-42 -24t-58.5 -7.5h-21q-10 0 -10 10v31q0 10 10 10h23q41 0 61.5 18.5t28.5 70.5l59 388h-86q-10 0 -10 10v27q0 10 10 10h94l22 143q6 39 16.5 66.5t28 44t42 24t58.5 7.5h21q10 0 10 -10v-31q0 -10 -10 -10h-24
q-41 0 -61 -19.5t-27 -69.5l-23 -145h100q10 0 10 -10v-27q0 -10 -10 -10h-107z" />
    <glyph glyph-name="circumflex" unicode="&#x2c6;" horiz-adv-x="421" 
d="M299 558q-10 0 -17 10l-71 85h-2l-70 -85q-9 -10 -17 -10h-25q-5 0 -6 3t2 7l90 123q6 9 16 9h23q9 0 15 -9l91 -123q3 -4 2 -7t-6 -3h-25z" />
    <glyph glyph-name="caron" unicode="&#x2c7;" horiz-adv-x="421" 
d="M199 558q-10 0 -16 9l-90 122q-3 4 -2 7t6 3h25q8 0 17 -10l70 -85h2l71 85q5 6 8 8t9 2h25q5 0 6 -3t-2 -7l-91 -122q-6 -9 -15 -9h-23z" />
    <glyph glyph-name="breve" unicode="&#x2d8;" horiz-adv-x="421" 
d="M210 570q-51 0 -84.5 29t-39.5 75q-2 10 9 10h19q9 0 12 -10q17 -60 84 -60q68 0 86 60q3 10 11 10h19q11 0 9 -10q-7 -46 -40 -75t-85 -29z" />
    <glyph glyph-name="dotaccent" unicode="&#x2d9;" horiz-adv-x="421" 
d="M188 604q-10 0 -10 10v56q0 10 10 10h44q10 0 10 -10v-56q0 -10 -10 -10h-44z" />
    <glyph glyph-name="ring" unicode="&#x2da;" horiz-adv-x="421" 
d="M298 629q0 -38 -25 -63t-63 -25t-63 25t-25 63t25 63t63 25t63 -25t25 -63zM263 629q0 24 -14.5 40t-38.5 16t-38.5 -16t-14.5 -40t14.5 -40t38.5 -16t38.5 16t14.5 40z" />
    <glyph glyph-name="ogonek" unicode="&#x2db;" horiz-adv-x="421" 
d="M210 -172q-32 0 -51 18t-19 50q0 25 15 49t57 55q8 6 13 8t11 2h34q5 0 5.5 -4t-3.5 -6q-26 -19 -42.5 -33.5t-25.5 -26t-12 -20.5t-3 -17q0 -28 29 -28q13 0 28 9q8 5 13 -3l11 -21q3 -7 -4 -13q-10 -8 -25 -13.5t-31 -5.5z" />
    <glyph glyph-name="tilde" unicode="&#x2dc;" horiz-adv-x="421" 
d="M263 596q-18 0 -32 6.5t-28 14.5q-12 8 -23.5 13t-25.5 5q-17 0 -30.5 -9.5t-27.5 -23.5q-9 -7 -9 3v30q0 7 8 15q12 14 27 22t34 8q18 0 32.5 -6t27.5 -14q12 -8 23.5 -13t25.5 -5q17 0 31 9t28 24q3 3 5.5 2t2.5 -5v-30q0 -5 -1 -8t-6 -8q-13 -13 -28 -21.5t-34 -8.5z
" />
    <glyph glyph-name="hungarumlaut" unicode="&#x2dd;" horiz-adv-x="421" 
d="M219 558q-10 0 -5 10l67 122q6 10 16 10h32q5 0 6 -3t-1 -7l-76 -123q-3 -5 -6 -7t-9 -2h-24zM95 558q-11 0 -6 10l67 122q6 10 16 10h33q5 0 6 -3t-1 -7l-76 -123q-3 -5 -6 -7t-9 -2h-24z" />
    <glyph glyph-name="pi" unicode="&#x3c0;" horiz-adv-x="561" 
d="M473 -6q-42 0 -59 20.5t-17 63.5v341q0 6 -6 6h-222q-6 0 -6 -6v-409q0 -10 -10 -10h-35q-10 0 -10 10v409q0 6 -7 6h-37q-10 0 -10 10v32q0 10 10 10h432q10 0 10 -10v-32q0 -10 -10 -10h-38q-6 0 -6 -6v-340q0 -18 6 -25.5t20 -7.5h6q10 0 10 -10v-32q0 -10 -10 -10
h-11z" />
    <glyph glyph-name="aComma" unicode="&#x60c;" horiz-adv-x="224" 
d="M146 10q0 -10 -10 -10h-49q-10 0 -10 10v80q0 8 0.5 12.5t4.5 9.5l44 78q4 7 12 7t8 -8v-179z" />
    <glyph glyph-name="aTahabove" unicode="&#x615;" horiz-adv-x="0" 
d="M-89 533q10 0 10 15v169q0 7 8 7h13q8 0 8 -7v-90q15 8 32.5 13t34.5 5q45 0 62.5 -23.5t17.5 -55.5q0 -62 -54 -62h-144q-7 0 -7 7v15q0 7 7 7h12zM21 616q-17 0 -36 -6t-35 -13v-64h93q17 0 21 6.5t4 27.5q0 23 -9.5 36t-37.5 13z" />
    <glyph glyph-name="aSemicolon" unicode="&#x61b;" horiz-adv-x="219" 
d="M146 244q0 -10 -10 -10h-49q-10 0 -10 10v80q0 8 0.5 12.5t4.5 9.5l44 78q4 7 12 7t8 -8v-179zM75 77q0 10 10 10h49q10 0 10 -10v-67q0 -10 -10 -10h-49q-10 0 -10 10v67z" />
    <glyph glyph-name="aQuestion" unicode="&#x61f;" horiz-adv-x="496" 
d="M226 149q-10 0 -10 10v13q0 28 -6 43t-21 37l-74 106q-23 33 -33 61.5t-10 60.5q0 36 12.5 66t34.5 51.5t53 33.5t68 12q74 0 120.5 -41t57.5 -110q2 -9 -8 -11l-40 -9q-9 -2 -11 8q-11 51 -40 79t-77 28q-49 0 -79.5 -28.5t-30.5 -76.5q0 -14 2.5 -26t7.5 -25t14 -27.5
t22 -33.5l72 -103q15 -23 22 -41.5t7 -49.5v-17q0 -10 -10 -10h-43zM285 10q0 -10 -10 -10h-55q-10 0 -10 10v72q0 10 10 10h55q10 0 10 -10v-72z" />
    <glyph glyph-name="aKashida" unicode="&#x640;" horiz-adv-x="98" 
d="M-1 0q-20 0 -26 7t-6 22q0 20 5.5 23.5t26.5 3.5h101q20 0 30 -4.5t10 -19.5q0 -19 -9.5 -25.5t-30.5 -6.5h-101z" />
    <glyph glyph-name="aHeh" unicode="&#x647;" horiz-adv-x="457" 
d="M222 -7q-86 0 -131 52t-45 163q0 213 176 213t176 -213q0 -111 -44.5 -163t-131.5 -52zM222 365q-63 0 -91 -42.5t-28 -117.5q0 -79 28 -117.5t91 -38.5t91.5 38.5t28.5 117.5q0 74 -28.5 117t-91.5 43z" />
    <glyph glyph-name="aFathatan" unicode="&#x64b;" horiz-adv-x="0" 
d="M-123 750q-10 0 -10 10v11q0 10 10 10h254q10 0 10 -10v-11q0 -10 -10 -10h-254zM-123 820q-10 0 -10 10v11q0 10 10 10h254q10 0 10 -10v-11q0 -10 -10 -10h-254z" />
    <glyph glyph-name="aDammatan" unicode="&#x64c;" horiz-adv-x="0" 
d="M-142 872q-10 0 -10 10v12q0 10 10 10h4q32 0 53.5 -20.5t21.5 -67.5q0 -26 15.5 -32t45.5 -6q23 0 38 4.5t25 11.5t14.5 14.5t6.5 13.5h-35q-33 0 -52.5 18t-19.5 48q0 32 21.5 53t51.5 21q32 0 53 -21t21 -69q0 -36 -9.5 -60t-26 -39t-39 -21t-49.5 -6q-20 0 -37 2
t-30 9.5t-20 21.5t-7 37q0 29 -10.5 42.5t-27.5 13.5h-8zM88 853q2 4 2 9.5v9.5q0 29 -12 44t-30 15q-20 0 -30 -14t-10 -29q0 -11 5 -17.5t11.5 -10.5t14 -5.5t13.5 -1.5h36z" />
    <glyph glyph-name="aKasratan" unicode="&#x64d;" horiz-adv-x="0" 
d="M-123 -196q-10 0 -10 10v11q0 10 10 10h254q10 0 10 -10v-11q0 -10 -10 -10h-254zM-123 -126q-10 0 -10 10v11q0 10 10 10h254q10 0 10 -10v-11q0 -10 -10 -10h-254z" />
    <glyph glyph-name="aFatha" unicode="&#x64e;" horiz-adv-x="0" 
d="M-123 751q-10 0 -10 10v11q0 10 10 10h254q10 0 10 -10v-11q0 -10 -10 -10h-254z" />
    <glyph glyph-name="aDamma" unicode="&#x64f;" horiz-adv-x="0" 
d="M41 850q1 5 1 10v10q0 29 -11.5 43.5t-29.5 14.5q-20 0 -30.5 -14t-10.5 -28q0 -21 16.5 -28.5t28.5 -7.5h36zM-49 775q23 0 38 4.5t24.5 11.5t14.5 15t7 14h-35q-34 0 -53 17.5t-19 48.5t21 52.5t52 21.5t52.5 -21t21.5 -69q0 -36 -9.5 -60.5t-26 -39.5t-39 -21
t-49.5 -6h-28q-10 0 -10 10v12q0 10 10 10h28z" />
    <glyph glyph-name="aKasra" unicode="&#x650;" horiz-adv-x="0" 
d="M-123 -138q-10 0 -10 10v11q0 10 10 10h254q10 0 10 -10v-11q0 -10 -10 -10h-254z" />
    <glyph glyph-name="aShadda" unicode="&#x651;" horiz-adv-x="0" 
d="M-128 896q0 10 10 10h16q10 0 10 -10v-74q0 -19 10 -29.5t26 -10.5t26 9.5t10 26.5v78q0 10 10 10h16q10 0 10 -10v-78q0 -17 10 -26.5t26 -9.5q15 0 25.5 10.5t10.5 29.5v74q0 10 10 10h16q10 0 10 -10v-71q0 -35 -20.5 -56t-51.5 -21q-34 0 -53 22q-19 -22 -55 -22
q-31 0 -51.5 21t-20.5 56v71z" />
    <glyph glyph-name="aSukun" unicode="&#x652;" horiz-adv-x="0" 
d="M-79 826q0 32 23 55t55 23t55 -23t23 -55t-23 -55t-55 -23t-55 23t-23 55zM-44 827q0 -18 13 -31t31 -13t31 13t13 31t-13 31t-31 13t-31 -13t-13 -31z" />
    <glyph glyph-name="aMadda" unicode="&#x653;" horiz-adv-x="0" 
d="M-179 777q5 18 13.5 28.5t18 16.5t20 7.5t19.5 1.5q23 0 48.5 -8t51 -17.5t50 -17.5t47.5 -8q17 0 24.5 7.5t7.5 26.5q0 10 10 10h19q10 0 10 -10q0 -23 -6.5 -37.5t-17 -22t-24 -10t-26.5 -2.5q-25 0 -51.5 8t-52.5 18t-50 18t-43 8q-10 0 -19 -5.5t-14 -22.5
q-3 -8 -11 -7l-18 7q-9 2 -6 11z" />
    <glyph glyph-name="aHamzaabove" unicode="&#x654;" horiz-adv-x="0" 
d="M-61 768q-8 13 -13.5 28t-5.5 38q0 13 4.5 29t15.5 30.5t30 24.5t48 10q23 0 44.5 -9.5t32.5 -26.5q3 -6 -2 -11l-15 -13q-5 -5 -11 1q-9 10 -22.5 16t-30.5 6q-26 0 -40.5 -18t-14.5 -44q0 -19 9.5 -35.5t20.5 -25.5h105q6 0 6 -7v-24q0 -7 -6 -7h-193q-6 0 -6 7v24
q0 7 6 7h38z" />
    <glyph glyph-name="aHamzabelow" unicode="&#x655;" horiz-adv-x="0" 
d="M-61 -230q-8 13 -13.5 28t-5.5 38q0 13 4.5 29t15.5 30.5t30 24.5t48 10q23 0 44.5 -9.5t32.5 -26.5q2 -4 1 -6.5t-3 -4.5l-15 -13q-5 -5 -11 1q-9 10 -22.5 16t-30.5 6q-26 0 -40.5 -18t-14.5 -44q0 -19 9.5 -35.5t20.5 -25.5h105q6 0 6 -7v-24q0 -7 -6 -7h-193
q-6 0 -6 7v24q0 7 6 7h38z" />
    <glyph glyph-name="aAlifbelow" unicode="&#x656;" horiz-adv-x="0" 
d="M17 -238q0 -10 -10 -10h-15q-10 0 -10 10v124q0 10 10 10h15q10 0 10 -10v-124z" />
    <glyph glyph-name="aNasalnun" unicode="&#x658;" horiz-adv-x="0" 
d="M-87 886q0 10 10 10h16q10 0 10 -10v-49q0 -26 14.5 -42t36.5 -16t36 16t14 42v49q0 10 10 10h16q10 0 10 -10v-48q0 -42 -24.5 -66t-61.5 -24t-62 24t-25 66v48z" />
    <glyph glyph-name="aZero" unicode="&#x660;" horiz-adv-x="409" 
d="M224 153q-10 -10 -20.5 -11t-21.5 11l-33 34q-11 11 -11 20t11 22l33 33q9 9 19 11t21 -9l36 -35q23 -19 0 -42z" />
    <glyph glyph-name="aOne" unicode="&#x661;" horiz-adv-x="409" 
d="M232 10q0 -10 -10 -10h-35q-10 0 -10 10v585q0 10 10 10h35q10 0 10 -10v-585z" />
    <glyph glyph-name="aTwo" unicode="&#x662;" horiz-adv-x="409" 
d="M105 478q0 63 28.5 95t91.5 32h139q10 0 10 -10v-37q0 -10 -10 -10h-143q-35 0 -48 -18t-13 -52v-468q0 -10 -10 -10h-35q-10 0 -10 10v468z" />
    <glyph glyph-name="aThree" unicode="&#x663;" horiz-adv-x="409" 
d="M105 435h83v113q0 10 10 10h37q10 0 10 -10v-114q50 0 68 13.5t18 46.5v101q0 10 10 10h38q10 0 10 -10v-85q0 -41 -10.5 -66t-29.5 -39.5t-44.5 -19.5t-55.5 -5h-144v-370q0 -10 -10 -10h-35q-10 0 -10 10v585q0 10 10 10h35q10 0 10 -10v-160z" />
    <glyph glyph-name="aFour" unicode="&#x664;" horiz-adv-x="409" 
d="M348 56q10 0 10 -10v-36q0 -10 -10 -10h-114q-38 0 -70 9t-55 28.5t-36.5 50.5t-13.5 74q0 16 3.5 37t13.5 42t28 41t47 35q-32 20 -47 56t-15 72q0 78 47.5 119t127.5 41h44q10 0 10 -10v-38q0 -10 -10 -10h-51q-55 0 -85.5 -24.5t-30.5 -76.5q0 -55 32.5 -80t83.5 -25
h50q10 0 10 -10v-38q0 -10 -10 -10h-78q-24 0 -44.5 -7.5t-36.5 -22.5t-25 -38t-9 -53q0 -28 9.5 -48t26 -33t39 -19t48.5 -6h111z" />
    <glyph glyph-name="aFive" unicode="&#x665;" horiz-adv-x="409" 
d="M202 0q-27 0 -55 6t-50.5 26.5t-37 59t-14.5 104.5v119q0 85 12 141.5t33.5 90t51 47t63.5 13.5q33 0 61.5 -13t49.5 -46t33.5 -90.5t12.5 -145.5v-111q0 -64 -13 -103.5t-35 -61t-51 -29t-61 -7.5zM204 57q25 0 44 5.5t32 21.5t20 45t7 76v104q0 130 -24 187t-79 57
q-27 0 -46 -12.5t-32 -41t-19 -74.5t-6 -112v-108q0 -48 7 -77t20 -44.5t32.5 -21t43.5 -5.5z" />
    <glyph glyph-name="aSix" unicode="&#x666;" horiz-adv-x="409" 
d="M65 548q-10 0 -10 10v37q0 10 10 10h158q54 0 79.5 -27t25.5 -87v-481q0 -10 -10 -10h-35q-10 0 -10 10v472q0 32 -12 49t-49 17h-147z" />
    <glyph glyph-name="aSeven" unicode="&#x667;" horiz-adv-x="409" 
d="M321 604q3 10 12 7l40 -10q11 -3 9 -11l-152 -584q-2 -8 -6 -9.5t-21 -1.5q-16 0 -19.5 2t-5.5 9l-152 584q-2 8 9 11l40 10q9 3 12 -7l116 -482z" />
    <glyph glyph-name="aEight" unicode="&#x668;" horiz-adv-x="409" 
d="M87 -5q-3 -10 -12 -7l-40 10q-11 3 -9 11l153 584q2 7 5.5 9t20.5 2q16 0 20 -2t6 -9l151 -584q2 -8 -9 -11l-40 -10q-9 -3 -12 7l-116 482z" />
    <glyph glyph-name="aNine" unicode="&#x669;" horiz-adv-x="409" 
d="M217 277q-69 0 -113.5 41t-44.5 117q0 33 9.5 63.5t28.5 54t48 38t67 14.5q40 0 66.5 -12.5t42.5 -34t22.5 -50.5t6.5 -61v-437q0 -10 -10 -10h-35q-10 0 -10 10v267h-78zM295 333v111q0 51 -22.5 77.5t-62.5 26.5q-42 0 -69.5 -29t-27.5 -80q0 -57 30 -81.5t75 -24.5h77
z" />
    <glyph glyph-name="aPercent" unicode="&#x66a;" horiz-adv-x="665" 
d="M485 620q2 4 5 7t8 3h48q10 0 7 -10l-386 -622q-2 -4 -5 -7t-8 -3h-48q-5 0 -7 3t0 7zM223 466q-10 -10 -20.5 -11t-21.5 11l-33 34q-11 11 -11 20t11 22l33 33q9 9 19 11t21 -9l36 -35q23 -19 0 -42zM452 28q-10 -10 -20.5 -11t-21.5 11l-33 34q-11 11 -11 20t11 22
l33 33q9 9 19 11t21 -9l36 -35q23 -19 0 -42z" />
    <glyph glyph-name="aDecimal" unicode="&#x66b;" horiz-adv-x="224" 
d="M76 77q0 10 10 10h50q10 0 10 -10v-80q0 -13 -5 -22l-45 -78q-4 -7 -11 -7q-9 0 -9 8v179z" />
    <glyph glyph-name="aThousands" unicode="&#x66c;" horiz-adv-x="230" 
d="M76 211q0 10 10 10h50q10 0 10 -10v-80q0 -13 -5 -22l-45 -78q-4 -7 -11 -7q-9 0 -9 8v179z" />
    <glyph glyph-name="aStar" unicode="&#x66d;" horiz-adv-x="343" 
d="M36 644q-5 3 -4 7l3 8q2 4 7 3l108 -13l17 101q2 10 7 10h8q6 0 8 -10l15 -101l108 13q5 1 7 -3l3 -8q1 -4 -4 -7l-98 -48l49 -94q4 -8 -3 -12l-3 -2q-6 -4 -13 3l-73 75l-74 -75q-7 -7 -13 -3l-3 2q-7 4 -3 12l49 94z" />
    <glyph glyph-name="aAlifabove" unicode="&#x670;" horiz-adv-x="0" 
d="M17 760q0 -10 -10 -10h-15q-10 0 -10 10v124q0 10 10 10h15q10 0 10 -10v-124z" />
    <glyph glyph-name="aHehYeh" unicode="&#x6c0;" horiz-adv-x="457" 
d="M222 -7q-86 0 -131 52t-45 163q0 213 176 213t176 -213q0 -111 -44.5 -163t-131.5 -52zM222 365q-63 0 -91 -42.5t-28 -117.5q0 -79 28 -117.5t91 -38.5t91.5 38.5t28.5 117.5q0 74 -28.5 117t-91.5 43zM165 514q-8 11 -14 28.5t-6 37.5q0 15 4.5 32t15.5 32t30 25t48 10
q23 0 42 -8t31 -25q4 -8 0 -10l-16 -10q-9 -6 -12 -3q-8 10 -20.5 16.5t-27.5 6.5q-32 0 -46.5 -20t-14.5 -43q0 -24 12 -42.5t24 -26.5h104q2 0 4 1t2 -1v-27q0 -7 -6 -7h-193q-6 0 -6 7v20q0 7 6 7h39z" />
    <glyph glyph-name="aHehGoalHamzaabove" unicode="&#x6c2;" horiz-adv-x="457" 
d="M222 -7q-86 0 -131 52t-45 163q0 213 176 213t176 -213q0 -111 -44.5 -163t-131.5 -52zM222 365q-63 0 -91 -42.5t-28 -117.5q0 -79 28 -117.5t91 -38.5t91.5 38.5t28.5 117.5q0 74 -28.5 117t-91.5 43zM165 514q-8 11 -14 28.5t-6 37.5q0 15 4.5 32t15.5 32t30 25t48 10
q23 0 42 -8t31 -25q4 -8 0 -10l-16 -10q-9 -6 -12 -3q-8 10 -20.5 16.5t-27.5 6.5q-32 0 -46.5 -20t-14.5 -43q0 -24 12 -42.5t24 -26.5h104q2 0 4 1t2 -1v-27q0 -7 -6 -7h-193q-6 0 -6 7v20q0 7 6 7h39z" />
    <glyph glyph-name="aTehMarbutaGoal" unicode="&#x6c3;" horiz-adv-x="457" 
d="M222 -7q-86 0 -131 52t-45 163q0 213 176 213t176 -213q0 -111 -44.5 -163t-131.5 -52zM222 365q-63 0 -91 -42.5t-28 -117.5q0 -79 28 -117.5t91 -38.5t91.5 38.5t28.5 117.5q0 74 -28.5 117t-91.5 43zM253 501q-10 0 -10 10v60q0 10 10 10h52q10 0 10 -10v-60
q0 -10 -10 -10h-52zM125 501q-10 0 -10 10v60q0 10 10 10h52q10 0 10 -10v-60q0 -10 -10 -10h-52z" />
    </font>
</defs>
</svg>
