<?xml version="1.0" standalone="no"?>
<!DOCTYPE svg PUBLIC "-//W3C//DTD SVG 1.1//EN" "http://www.w3.org/Graphics/SVG/1.1/DTD/svg11.dtd" >
<svg xmlns="http://www.w3.org/2000/svg">
<metadata></metadata>
<defs>
<font id="al-jazeera-arabicbold" horiz-adv-x="1071" >
<font-face units-per-em="2048" ascent="1638" descent="-410" />
<missing-glyph horiz-adv-x="524" />
<glyph horiz-adv-x="0" />
<glyph unicode="&#xd;" horiz-adv-x="524" />
<glyph unicode=" "  horiz-adv-x="524" />
<glyph unicode="&#x09;" horiz-adv-x="524" />
<glyph unicode="&#xa0;" horiz-adv-x="524" />
<glyph unicode="!" horiz-adv-x="524" d="M115 102q0 66 46 112t111 46q63 0 107.5 -46t44.5 -112q0 -63 -44 -107t-108 -44q-66 0 -111.5 44t-45.5 107zM141 1012v352h260v-352l-36 -654h-189z" />
<glyph unicode="&#x22;" horiz-adv-x="759" d="M119 897v508h203v-508h-203zM463 897v508h203v-508h-203z" />
<glyph unicode="#" horiz-adv-x="1245" d="M109 350v199h161l54 266h-215v199h258l69 350h201l-70 -350h199l70 350h208l-73 -350h125v-199h-166l-53 -266h219v-199h-258l-72 -350h-203l72 350h-201l-69 -350h-205l73 350h-124zM473 549h203l49 266h-197z" />
<glyph unicode="$" horiz-adv-x="937" d="M63 344l228 25q12 -70 51 -120t86 -73v365q-174 49 -252 147t-78 240q0 143 88 239t242 113v86h127v-86q137 -16 219 -94t105 -209l-222 -27q-18 102 -102 137v-339q209 -59 285 -148q74 -90 73 -231q0 -158 -94 -265q-94 -109 -264 -133v-161h-127v157 q-152 18 -245 111.5t-120 265.5zM315 938q0 -45 28 -85t85 -65v304q-53 -18 -83 -60.5t-30 -93.5zM555 164q31 6 57.5 20.5t46.5 40.5q41 43 41 113q0 59 -33.5 101t-111.5 65v-340z" />
<glyph unicode="%" horiz-adv-x="1722" d="M113 1022q0 176 76.5 259t207.5 83q135 0 211 -83t76 -259q0 -174 -77 -257t-206 -83q-135 0 -211.5 83t-76.5 257zM307 1024q0 -127 29 -168q20 -33 61 -33t62 33q29 41 28 168q0 127 -28 168q-23 35 -62 35t-61 -33q-29 -45 -29 -170zM401 0l691 1364h178l-684 -1364 h-185zM985 338q0 176 77 259t210 83q135 0 211 -83t76 -259q0 -174 -77 -258t-208 -84q-135 0 -212 84t-77 258zM1180 338q0 -61 8 -103t20 -65q25 -33 62 -33q41 0 61 33q29 41 29 168q0 131 -27 170q-25 33 -63 33q-37 0 -62 -33q-12 -20 -20 -63.5t-8 -106.5z" />
<glyph unicode="&#x26;" horiz-adv-x="1296" d="M41 383q0 258 301 403q-137 158 -137 289q0 119 96 205q96 84 272 84q174 0 269 -88q96 -90 96 -215q0 -78 -49 -152q-45 -74 -193 -161l187 -244q16 29 29.5 66.5t23.5 84.5l229 -53q-18 -61 -32.5 -104t-26.5 -72q-25 -55 -55 -94q23 -20 49 -42t61 -46 q35 -23 59 -39.5t40 -22.5l-152 -196q-113 55 -217 151q-82 -72 -171 -105.5t-212 -33.5q-248 0 -371 137q-96 109 -96 248zM301 391q0 -82 52.5 -133t142.5 -51q59 0 113.5 22.5t119.5 77.5l-256 318q-88 -43 -130 -105.5t-42 -128.5zM453 1085q0 -49 57 -114l61 -72l70 51 q76 57 76 119q0 47 -37 82t-100 35q-59 0 -93 -31t-34 -70z" />
<glyph unicode="'" horiz-adv-x="374" d="M84 897v508h203v-508h-203z" />
<glyph unicode="(" horiz-adv-x="647" d="M78 532q0 223 102.5 444.5t327.5 444.5h59q-117 -205 -174 -426t-57 -469q0 -483 225 -899h-59q-221 229 -322.5 455.5t-101.5 449.5z" />
<glyph unicode=")" horiz-adv-x="634" d="M78 1421h59q225 -223 327.5 -444t102.5 -445q0 -223 -101 -449t-323 -456h-59q225 416 225 899q0 248 -57 469.5t-174 425.5z" />
<glyph unicode="*" horiz-adv-x="1259" d="M78 571q14 170 155 281q53 33 117 73t142 91q74 66 63 125l-2 -2q-20 -18 -41 -21q-53 0 -55 56q0 57 53 59q35 0 57 -35q10 -25 17.5 -59.5t7.5 -81.5q0 -53 -7 -93t-18 -69q-20 -41 -49 -103.5t-65 -146.5q-78 -180 -78 -371q0 -43 4 -81.5t12 -75.5q-4 -8 -11 -13.5 t-13 -9.5q-10 53 -15.5 111.5t-3.5 124.5q0 96 18.5 188t59.5 184l115 250q8 20 14 42t8 46q-20 -45 -63 -82q-53 -31 -109.5 -69.5t-120.5 -87.5q-133 -109 -147 -277q-2 -27 0 -53.5t10 -56.5q23 102 78 102q61 6 104 -115q12 -35 13 -82q0 -92 -68 -92q-55 0 -100 62v-10 q0 -86 28 -142q41 -76 117 -76q68 0 112 75t60 224q10 63 35 84l82 78q35 33 39 49l12 -86q6 -37 -37 -73l-80 -72q-8 -16 -10 -33q-18 -156 -31 -205q-31 -111 -104 -127q-8 -2 -16.5 -3t-22.5 -1q-150 0 -205 205q-18 76 -14 174q-2 0 -2 2v4q-18 33 -35 103 q-6 35 -8 62.5t-2 49.5zM168 346q27 -23 57 -22q58 0 60 57q-12 37 -43 37q-49 0 -74 -72zM260 614q-14 35 10 80q20 35 58 62q10 12 16 10q2 -6 -6 -18l-41 -37q-23 -35 -23 -60q6 -18 19 -18q8 0 12 4q0 8 12 31q10 0 11 -9q0 -37 -27 -59q-12 -6 -18 -6q-14 0 -23 20z M381 1079q0 53 55 58q54 -1 58 -56q2 -53 -54 -57q-57 -2 -59 55zM406 -33q8 4 15 10.5t15 10.5q55 -121 129 -121q4 0 8.5 1t8.5 1q55 16 77 102l23 148q4 35 11 64.5t16 58.5q2 10 8 21t14 24q37 61 148 166l30 30q90 106 82 183q-16 -23 -90 -80q-66 -49 -86 -88 q-10 29 -14 48t-8 27q-10 45 18 76q59 66 53 144q-2 18 -7 37.5t-17 37.5q-16 23 -58.5 72t-113.5 129q6 -37 6 -72q0 -115 -70 -245q-82 -150 -78 -271l-24 -22q-4 20 -4 39.5v38.5q0 100 90 311q55 131 55 205q0 29 -22 86q-10 29 -15.5 51t-5.5 37q0 55 43 114 q-45 84 -45 154q0 98 53 135q14 14 31 15q2 -2 2 -5l-2 -4q-53 -29 -53 -86q0 -90 82 -192q72 -90 124 -159t87 -116q68 -94 116.5 -177t83.5 -154q41 -84 59.5 -164t18.5 -158q0 -92 -22.5 -161.5t-65.5 -121.5q-84 -88 -227 -88q-6 0 -35 1t-84 24q8 59 18 96q0 -4 7 -4 q18 -4 37.5 -6t39.5 -2q125 0 201 100q74 92 74 217q0 98 -64.5 233.5t-199.5 309.5q-96 123 -151.5 196.5t-72.5 96.5q-27 -33 -26 -72q0 -51 51 -104q20 -20 50 -52t71 -79q80 -90 104 -172v-8q6 -25 6 -54q0 -37 -14 -65l92 86v-2q37 -123 37 -219q0 -55 -16 -88 q-27 -59 -107 -152l-129 -141q-16 -33 -35 -183q-4 -45 -7 -77.5t-5 -49.5q-20 -106 -111 -106q-129 0 -210 184zM506 -39l61 74l62 -53l-62 -72zM520 88l60 70l63 -52l-63 -71zM541 328l26 24q41 -70 119 -123q-4 -16 -8 -36.5t-8 -45.5q-41 35 -74 80t-55 101zM653 664 q0 6 62 79l59 60q4 10 8 16t6 10l9 -32q0 -10 -64 -80l-57 -64q-4 -6 -9 -12t-8 -14zM676 416l43 88l72 -35l-41 -86zM797 0q-4 8 2 14q6 4 10 -12t20 -43q8 -18 29 -12q6 6 6 16v12q17 -6 25 -43q6 -23 -10 -28q-18 -10 -45 18q-16 23 -25 45zM915 262l41 88l70 -35 l-37 -86z" />
<glyph unicode="+" horiz-adv-x="1091" d="M162 315v224h291v290h223v-290h291v-224h-291v-290h-223v290h-291z" />
<glyph unicode="," horiz-adv-x="503" d="M86 125q0 55 41 98t104 43q39 0 73 -19.5t58.5 -54t38 -80.5t13.5 -102q0 -156 -88 -268q-47 -57 -133 -119l-33 55l52.5 52.5t39.5 44.5q55 74 55 129t-110 80q-111 24 -111 141z" />
<glyph unicode="-" d="M162 315v224h805v-224h-805z" />
<glyph unicode="." horiz-adv-x="518" d="M104 147q0 66 46.5 112t111.5 46q63 0 107.5 -46t44.5 -112q0 -63 -44 -107t-108 -44q-66 0 -112 44t-46 107z" />
<glyph unicode="/" horiz-adv-x="1075" d="M96 0l690 1364h232l-684 -1364h-238z" />
<glyph unicode="0" horiz-adv-x="1142" d="M72 680q0 193 28.5 328t88 220t148.5 124t212 39q119 0 209 -38t149.5 -123t89 -221.5t29.5 -332.5q0 -195 -28.5 -330t-88 -220t-149.5 -124t-211 -39q-106 0 -194.5 28.5t-151 108.5t-97 219.5t-34.5 360.5zM362 676q0 -178 14.5 -274.5t39 -140.5t58.5 -52t75 -8 q45 0 80 13t58.5 61.5t35.5 142.5t12 258q0 178 -14 275.5t-40 141.5t-59.5 52t-72.5 8q-47 0 -82 -13.5t-57.5 -61.5t-35 -143t-12.5 -259z" />
<glyph unicode="1" horiz-adv-x="696" d="M51 1055q98 53 187.5 140t128.5 194h204v-1389h-260v967q-57 -53 -121.5 -95.5t-136.5 -76.5z" />
<glyph unicode="2" horiz-adv-x="1112" d="M72 0q12 68 31.5 129t59.5 130t108.5 148.5t177.5 184.5q45 43 97 81t97 79t75 89t30 113q0 98 -52.5 148.5t-144.5 50.5q-84 0 -125 -45t-57 -150h-273q29 229 144.5 331t318.5 102q111 0 199 -32t149.5 -88.5t94 -132t32.5 -163.5q0 -74 -17.5 -128t-58 -106.5 t-108.5 -116t-166 -155.5q-72 -66 -116 -126t-79 -120h545v-223h-962z" />
<glyph unicode="3" horiz-adv-x="1056" d="M55 362h256q23 -86 75 -124.5t128 -38.5q88 0 144.5 62.5t56.5 178.5q0 111 -52.5 158t-138.5 47h-96l4 182h8q109 0 162 47.5t53 133.5q0 76 -41 121t-114 45q-63 0 -111.5 -37t-69.5 -111h-256q39 195 145.5 281t297.5 86q96 0 179 -29t143.5 -78t95 -116.5 t34.5 -145.5q0 -98 -52 -171t-171 -116q129 -27 206 -100.5t77 -208.5q0 -100 -38 -185t-105.5 -147.5t-159.5 -97.5t-199 -35q-111 0 -192.5 27.5t-137 80t-87 126t-44.5 165.5z" />
<glyph unicode="4" horiz-adv-x="1138" d="M68 293v229l612 867h264v-865h143v-231h-143v-293h-262v293h-614zM338 524h344v482z" />
<glyph unicode="5" horiz-adv-x="1099" d="M82 350h276q23 -72 77 -113.5t120 -41.5q92 0 154.5 72.5t62.5 219.5q0 70 -16.5 113t-46 67.5t-70.5 33t-90 8.5q-98 0 -180 -70l-263 2l146 748h702v-230h-485l-55 -270q47 25 96 33t98 8q193 0 310.5 -108.5t117.5 -327.5q0 -111 -34.5 -208.5t-97 -168t-151.5 -111.5 t-200 -41q-203 0 -320.5 102.5t-150.5 282.5z" />
<glyph unicode="6" horiz-adv-x="1087" d="M68 641q0 209 36.5 352.5t106.5 233.5t166 130t217 40q170 0 276.5 -80t139.5 -258h-277q-16 63 -56 80.5t-99 17.5q-43 0 -81 -11t-69 -53t-52.5 -121t-29.5 -214q109 127 264 127q90 0 168 -38t134.5 -100.5t89 -143.5t32.5 -167q0 -115 -33.5 -204t-95 -148 t-147.5 -90t-191 -31q-113 0 -205 37t-157.5 119t-101 210t-35.5 312zM369 459q0 -72 17 -120t47 -79t68 -44t81 -13q39 0 73.5 9t59 34.5t39 69.5t14.5 116q0 104 -57.5 171t-143.5 67q-43 0 -78.5 -16.5t-62.5 -46t-42 -67.5t-15 -81z" />
<glyph unicode="7" horiz-adv-x="974" d="M51 1159v230h869l2 -232q-82 -94 -161 -229t-141.5 -290t-104.5 -319.5t-50 -318.5h-277q8 147 45 303t95.5 306.5t137.5 290.5t171 259h-586z" />
<glyph unicode="8" horiz-adv-x="1087" d="M41 387q0 123 62.5 206t191.5 138q-111 47 -166 124t-55 175q0 84 31.5 152.5t91 118t144.5 77t194 27.5q104 0 189 -27.5t145.5 -77t92 -118t31.5 -152.5q0 -104 -59.5 -180t-157.5 -119q129 -49 194.5 -128t65.5 -204q0 -104 -35.5 -185t-100 -137.5t-155 -85 t-198.5 -28.5q-111 0 -204 28.5t-159.5 82t-104.5 132.5t-38 181zM319 414q0 -59 17.5 -100.5t48.5 -68t71 -38.5t85 -12t85 11t68.5 36.5t46 66.5t17.5 103q0 106 -64.5 151t-156.5 45q-104 0 -161 -54t-57 -140zM344 1010q0 -86 54.5 -129t136.5 -43q80 0 135 43t55 129 q0 82 -54.5 130t-133.5 48q-82 0 -137.5 -48t-55.5 -130z" />
<glyph unicode="9" horiz-adv-x="1089" d="M66 924q0 115 33.5 202.5t95 148t147.5 91.5t190 31q113 0 205 -37t158 -119t101.5 -210t35.5 -312q0 -209 -37 -352.5t-106.5 -233.5t-166.5 -130t-216 -40q-170 0 -276.5 80t-139.5 258h277q16 -63 56 -80.5t99 -17.5q43 0 81 11t68.5 53t52 121t30.5 214 q-109 -127 -265 -127q-90 0 -167.5 38t-134 100.5t-89 143.5t-32.5 167zM332 928q0 -104 57 -171t143 -67q43 0 79 16.5t62.5 46t42 67.5t15.5 81q0 70 -17.5 119t-47 79.5t-67.5 44t-81 13.5q-41 0 -74.5 -9t-58.5 -35t-39 -71t-14 -114z" />
<glyph unicode=":" horiz-adv-x="518" d="M104 147q0 66 46.5 112t111.5 46q63 0 107.5 -46t44.5 -112q0 -63 -44 -107t-108 -44q-66 0 -112 44t-46 107zM104 727q0 66 46.5 112t111.5 46q63 0 107.5 -46t44.5 -112q0 -63 -44 -107t-108 -44q-66 0 -112 44t-46 107z" />
<glyph unicode=";" horiz-adv-x="530" d="M104 727q0 66 46.5 112t111.5 46q63 0 107.5 -46t44.5 -112q0 -63 -44 -107.5t-108 -44.5q-66 0 -112 44.5t-46 107.5zM109 125q0 55 40.5 98t104.5 43q39 0 72.5 -19.5t58.5 -54t38 -80.5t13 -102q0 -156 -88 -268q-47 -57 -133 -119l-33 55l52.5 52.5t39.5 44.5 q55 74 56 129q0 55 -111 80q-110 24 -110 141z" />
<glyph unicode="&#x3c;" horiz-adv-x="1218" d="M78 416v202l975 439v-238l-670 -301l670 -303v-238z" />
<glyph unicode="=" horiz-adv-x="1087" d="M162 225v224h805v-224h-805zM162 604v223h805v-223h-805z" />
<glyph unicode="&#x3e;" horiz-adv-x="1218" d="M78 -23v238l672 303l-672 301v238l975 -439v-202z" />
<glyph unicode="@" horiz-adv-x="1916" d="M53 414q0 262 123 487t340 338q217 117 494 117q117 0 221 -23.5t199 -68.5q178 -88 278 -260q94 -168 94 -369q0 -242 -145 -430q-182 -244 -471 -244q-78 0 -117 26.5t-51 80.5q-113 -106 -254 -107q-152 0 -258 107q-100 109 -100 286q0 223 120 400q150 221 385 221 q166 0 244 -127l25 104h245l-143 -671q-4 -31 -8 -51.5t-4 -30.5q0 -23 10 -35t27 -12q45 0 116 55q94 70 156 192q29 59 42 120t13 126q0 231 -164 383q-168 156 -464 156q-256 0 -431 -105q-176 -102 -264 -291q-43 -92 -66.5 -189t-23.5 -200q0 -195 101 -358 q49 -82 118.5 -139.5t159.5 -96.5q92 -35 193.5 -54t218.5 -19q446 0 643 248h198q-90 -184 -286 -297q-221 -123 -539 -123q-154 0 -288 25.5t-246 78.5q-219 102 -332 307q-109 199 -109 443zM645 365q0 -117 47 -175q49 -57 119 -57q51 0 100 27q35 14 72 57 q23 29 45.5 71t38.5 95q37 111 37 205q0 106 -49 162q-49 57 -125 57q-80 0 -148 -62q-66 -61 -102 -178q-16 -59 -25.5 -108t-9.5 -94z" />
<glyph unicode="[" horiz-adv-x="677" d="M125 -371v1803h477v-213h-221v-1377h221v-213h-477z" />
<glyph unicode="\" horiz-adv-x="1079" d="M96 1364h232l690 -1364h-238z" />
<glyph unicode="]" horiz-adv-x="688" d="M125 -158h221v1377h-221v213h477v-1803h-477v213z" />
<glyph unicode="{" horiz-adv-x="765" d="M49 418v225q66 2 105 23q33 16 58.5 56t33.5 99q10 47 10 158q0 90 3 153.5t13 100.5q16 72 60.5 116t130.5 66q55 18 178 19h51v-224q-100 0 -135 -14q-29 -10 -43 -32.5t-14 -82.5q0 -31 -2 -87t-6 -140q-4 -47 -9.5 -84t-15.5 -65q-23 -59 -51 -95q-14 -20 -38 -39.5 t-54 -40.5q57 -33 90 -75q37 -41 54 -102.5t24 -162.5q6 -160 6 -200q0 -59 16 -86q16 -23 45 -35q35 -14 133 -14v-226h-51q-63 0 -111.5 5.5t-80.5 15.5q-74 23 -117 65q-45 45 -62 117q-10 35 -12 89t-2 128q0 88 -4 142.5t-10 82.5q-23 72 -66 107q-41 37 -127 37z" />
<glyph unicode="|" horiz-adv-x="595" d="M178 -371v1805h260v-1805h-260z" />
<glyph unicode="}" horiz-adv-x="745" d="M49 -145q51 0 84 4t49 10q29 12 45 35q16 27 17 86q0 41 6 200q6 100 23.5 162t54.5 103q33 43 90 75q-31 20 -54.5 40t-37.5 40q-29 35 -52 95q-10 29 -15 65.5t-9 83.5q-4 84 -6 140.5t-2 86.5q0 59 -14.5 82t-43.5 33q-16 6 -49 10t-86 4v224h51q123 0 179 -19 q86 -23 130 -66.5t60 -115.5q10 -37 13 -100.5t3 -153.5q0 -111 11 -158q8 -59 33.5 -99t58.5 -56q39 -20 104 -23v-225q-86 0 -127 -37q-43 -35 -65 -107q-6 -29 -10.5 -83t-4.5 -142q0 -74 -2 -128t-12 -89q-16 -72 -61 -117q-43 -43 -117 -65q-33 -10 -81 -15.5 t-112 -5.5h-51v226z" />
<glyph unicode="&#xa3;" horiz-adv-x="1087" d="M39 215q104 74 148 156t44 155v25.5t-2 28.5h-190v198h143q-37 106 -37 215q0 98 54 189q55 90 151 135q100 47 213 47q180 0 285.5 -90t128.5 -258l-244 -37q-16 98 -62 139t-114 41t-119 -47q-47 -47 -47 -121q0 -39 12 -100q6 -31 14.5 -58.5t18.5 -54.5h281v-198 h-242q2 -10 3 -20.5t1 -20.5q0 -76 -26 -131q-14 -31 -42 -71t-69 -89q53 27 123 26h30.5t26.5 -4q6 -2 25.5 -5t48.5 -13q106 -27 149 -27q64 0 185 51l98 -215q-53 -29 -119.5 -46t-132.5 -17q-80 0 -215 39q-131 39 -199 39q-113 0 -225 -80z" />
<glyph unicode="&#xab;" horiz-adv-x="954" d="M43 680l242 354h243l-252 -356l250 -365h-241zM410 680l239 354h246l-254 -356l250 -365h-242z" />
<glyph unicode="&#xad;" d="M162 315v224h805v-224h-805z" />
<glyph unicode="&#xb7;" horiz-adv-x="407" d="M92 502q0 25 8.5 44t24.5 36q37 32 80 32q25 0 44 -8t36 -24q31 -35 30 -80q0 -47 -30 -80q-16 -16 -36 -24.5t-44 -8.5q-43 0 -80 33q-33 37 -33 80z" />
<glyph unicode="&#xbb;" horiz-adv-x="954" d="M72 313l247 361l-247 360h241l240 -360l-240 -361h-241zM436 313l250 361l-250 360h240l239 -360l-239 -361h-240z" />
<glyph unicode="&#xd7;" horiz-adv-x="1026" d="M201 221l205 205l-205 207l157 158l205 -205l207 205l158 -158l-205 -207l205 -205l-158 -158l-207 205l-205 -205z" />
<glyph unicode="&#xf7;" horiz-adv-x="1103" d="M162 418v223h805v-223h-805zM397 147q0 66 46 112t112 46q63 0 107.5 -46t44.5 -112q0 -63 -44.5 -107t-107.5 -44q-66 0 -112 44t-46 107zM397 932q0 66 46 112t112 46q63 0 107.5 -46.5t44.5 -111.5q0 -63 -44.5 -107.5t-107.5 -44.5q-66 0 -112 44.5t-46 107.5z" />
<glyph unicode="&#x2000;" horiz-adv-x="822" />
<glyph unicode="&#x2001;" horiz-adv-x="1645" />
<glyph unicode="&#x2002;" horiz-adv-x="822" />
<glyph unicode="&#x2003;" horiz-adv-x="1645" />
<glyph unicode="&#x2004;" horiz-adv-x="548" />
<glyph unicode="&#x2005;" horiz-adv-x="411" />
<glyph unicode="&#x2006;" horiz-adv-x="274" />
<glyph unicode="&#x2007;" horiz-adv-x="274" />
<glyph unicode="&#x2008;" horiz-adv-x="205" />
<glyph unicode="&#x2009;" horiz-adv-x="329" />
<glyph unicode="&#x200a;" horiz-adv-x="91" />
<glyph unicode="&#x2010;" d="M162 315v224h805v-224h-805z" />
<glyph unicode="&#x2011;" d="M162 315v224h805v-224h-805z" />
<glyph unicode="&#x2012;" d="M162 315v224h805v-224h-805z" />
<glyph unicode="&#x2013;" horiz-adv-x="888" d="M82 479v139h625q90 0 90 -88v-135h-623q-92 0 -92 84z" />
<glyph unicode="&#x2014;" horiz-adv-x="1603" d="M82 479v139h1339q90 0 90 -88v-135h-1337q-92 0 -92 84z" />
<glyph unicode="&#x2018;" horiz-adv-x="446" d="M66 1120q0 156 88 269q47 57 133 118l32 -55q-29 -29 -52 -52.5t-40 -43.5q-55 -74 -55 -129t111 -80q110 -24 110 -141q0 -55 -41 -98.5t-104 -43.5q-41 0 -74 19.5t-57.5 54.5t-37.5 81t-13 101z" />
<glyph unicode="&#x2019;" horiz-adv-x="452" d="M66 1366q0 55 40.5 98t104.5 43q39 0 72.5 -19.5t58.5 -54t38 -80.5t13 -102q0 -156 -88 -268q-47 -57 -133 -119l-33 56q29 29 52.5 52t39.5 44q55 74 56 129q0 55 -111 80q-110 24 -110 141z" />
<glyph unicode="&#x201c;" horiz-adv-x="868" d="M66 1120q0 156 88 269q47 57 133 118l32 -55q-29 -29 -52 -52.5t-40 -43.5q-55 -74 -55 -129t111 -80q110 -24 110 -141q0 -55 -41 -98.5t-104 -43.5q-41 0 -74 19.5t-57.5 54.5t-37.5 81t-13 101zM453 1120q0 156 88 269q47 57 133 118l33 -55l-52.5 -52.5t-40.5 -43.5 q-55 -74 -55 -129t111 -80q110 -24 110 -141q0 -55 -41 -98.5t-104 -43.5q-41 0 -74 19.5t-57.5 54.5t-37.5 81t-13 101z" />
<glyph unicode="&#x201d;" horiz-adv-x="831" d="M66 1366q0 55 40.5 98t104.5 43q39 0 72.5 -19.5t58.5 -54t38 -80.5t13 -102q0 -156 -88 -268q-47 -57 -133 -119l-33 56q29 29 52.5 52t39.5 44q55 74 56 129q0 55 -111 80q-110 24 -110 141zM457 1366q0 55 41 98t104 43q39 0 73 -19.5t58.5 -54t37.5 -80.5t13 -102 q0 -156 -88 -268q-47 -57 -133 -119l-33 56q29 29 52.5 52t40.5 44q55 74 55 129t-111 80q-110 24 -110 141z" />
<glyph unicode="&#x2026;" horiz-adv-x="1513" d="M104 147q0 66 46.5 112t111.5 46q63 0 107.5 -46t44.5 -112q0 -63 -44 -107t-108 -44q-66 0 -112 44t-46 107zM602 137q0 66 46 112t112 46q63 0 107 -46t44 -112q0 -63 -44 -107t-107 -44q-66 0 -112 44t-46 107zM1102 137q0 66 46 112t112 46q63 0 107 -46t44 -112 q0 -63 -44 -107t-107 -44q-66 0 -112 44t-46 107z" />
<glyph unicode="&#x202f;" horiz-adv-x="329" />
<glyph unicode="&#x205f;" horiz-adv-x="411" />
<glyph unicode="&#x20ac;" horiz-adv-x="1144" d="M51 485l29 142h88v118h-117l29 142h106q37 174 152 299q172 182 448 182q152 0 263 -55l-52 -250q-78 76 -225 76t-237 -107q-53 -59 -74 -145h495l-28 -142h-484q-2 -10 -2 -24v-31v-30.5t2 -32.5h459l-29 -142h-411q25 -94 69 -151q88 -104 236 -105q172 0 276 105 v-277q-121 -57 -274 -57q-262 0 -434 180q-115 121 -152 305h-133z" />
<glyph unicode="&#x25fc;" horiz-adv-x="1024" d="M0 0z" />
</font>
</defs>
</svg>
